<?xml version="1.0" standalone="no"?>
<!DOCTYPE svg PUBLIC "-//W3C//DTD SVG 1.1//EN" "http://www.w3.org/Graphics/SVG/1.1/DTD/svg11.dtd" >
<svg xmlns="http://www.w3.org/2000/svg" xmlns:xlink="http://www.w3.org/1999/xlink" version="1.1">
<metadata></metadata>
<defs>
<font id="golosbold" horiz-adv-x="768" >
<font-face units-per-em="2048" ascent="1638" descent="-410" />
<missing-glyph horiz-adv-x="323" />
<glyph horiz-adv-x="0" />
<glyph horiz-adv-x="682" />
<glyph unicode=" "  horiz-adv-x="323" />
<glyph unicode="&#x09;" horiz-adv-x="323" />
<glyph unicode="&#xa0;" horiz-adv-x="323" />
<glyph unicode="!" horiz-adv-x="368" d="M87 1513q-1 43 0 71.5t5 37.5q8 4 33.5 1t65 -3t55.5 8q6 -138 6 -368q10 -127 9.5 -252t0.5 -252q1 -49 -10 -226.5t-12 -201.5q-12 -2 -25 -6t-19 -5.5t-15.5 1t-20.5 12.5q-35 140 -51 428q-7 81 -10 227t-9 213q-8 180 -2 270q0 2 -1 45zM121 139q21 29 65.5 36.5 t67.5 -17.5q21 -24 27 -41q18 -53 -23 -123q-47 -15 -83.5 -0.5t-53 56t-0.5 89.5z" />
<glyph unicode="&#x22;" horiz-adv-x="481" d="M65 1578.5q-1 22.5 0.5 40t6.5 30.5q11 35 20.5 43t40.5 14q32 6 61 -28t23 -72q-2 -16 -3 -69.5t-7 -80.5q-2 -11 -7 -48.5t-10 -68t-11.5 -65.5t-15.5 -56t-18 -24q-9 -2 -17.5 13.5t-16 44t-13.5 58.5t-11 64.5t-7 53.5t-4 34q-1 10 -4 36.5t-4.5 42t-2.5 38z M276 1606q-6 38 23 72t61 28q10 0 17.5 -1t13 -2t10 -5.5t7 -6t6 -9.5t4.5 -11t4.5 -14.5t5.5 -16.5q6 -17 7 -38.5t-0.5 -37t-5.5 -45t-5 -42.5q-1 -14 -4 -35l-8 -56t-11.5 -67.5t-14 -62t-16.5 -46t-18 -14.5q-9 3 -17.5 26t-15.5 59t-11.5 70t-9.5 71.5t-7 50.5 q-6 28 -9.5 73.5t-5.5 59.5z" />
<glyph unicode="#" horiz-adv-x="1060" d="M53.5 629.5q-1.5 7.5 1 17.5t11.5 17q17 8 30.5 7.5t40.5 -4.5t41 -3q22 1 63.5 -4t61.5 -3q6 37 29 156t30 162q-32 10 -126 4.5t-117 1.5v13t5 28t13 25q19 1 75.5 4t80.5 3t76 -3q28 106 46.5 320t28.5 280q19 11 50 2q1 0 13 1t20 -3t8 -17q-17 -70 -35.5 -209 t-28.5 -190q-1 -5 -15 -81.5t-14 -111.5q57 -17 244 7q16 36 22.5 130t8.5 109q2 30 22.5 151.5t20.5 125.5q7 65 12 73q3 5 4 7t3.5 2.5t6 0t10.5 -0.5h17q12 1 20.5 0t13 -3.5t6.5 -5.5t2 -6.5t-0.5 -6t-1.5 -5.5l-1 -2q0 -15 -6.5 -60t-7.5 -55q-1 -33 -16.5 -106 t-18.5 -99q-5 -37 -23.5 -136t-21.5 -118q20 -7 59 -2.5t76.5 13t70.5 7.5t42 -18q6 -17 1.5 -37.5t-3.5 -25.5q-12 -4 -20 -4.5t-17 1t-15 1.5q-22 3 -100 3.5t-102 -3.5q-14 -43 -27.5 -152t-13.5 -163q18 -3 121 1.5t110 0.5q0 -12 -5 -40t-9 -32q-35 6 -136 6h-100 q-20 -33 -20.5 -113t-7.5 -106q-15 -59 -27.5 -174.5t-24.5 -163.5q-4 -14 -2 -20t0.5 -11t-10.5 -12q-13 -3 -24.5 -7t-15 -4.5t-8.5 2t-15 11.5q-4 34 3 85t21.5 120t18.5 92q40 263 47 297q-20 8 -71 8.5t-112.5 -3t-70.5 -3.5q-5 -38 -17.5 -131.5t-24 -172 t-22.5 -138.5q-2 -16 -3.5 -54t-6.5 -63t-18 -37q-10 -4 -23 -9q-16 -7 -19.5 -6.5t-16.5 10.5q-3 2 -5 3q-6 83 11.5 190.5t44.5 226t34 181.5q-20 0 -88.5 -3.5t-103 -4.5t-50.5 4q-1 4 -4.5 16t-5 19.5zM381 666q54 15 248 -4q7 32 25 158.5t24 158.5q-19 -1 -73 1.5 t-103.5 2.5t-71.5 -8q-2 -16 -24.5 -140.5t-24.5 -168.5z" />
<glyph unicode="$" horiz-adv-x="684" d="M62.5 1242.5q-0.5 1.5 3.5 26t8 54.5q5 41 41 94q31 50 78.5 86.5t97.5 42.5q4 20 3.5 67t0.5 64q36 9 59 2q-1 -5 -0.5 -33t1.5 -61l1 -33q91 -18 136.5 -41.5t80.5 -66.5q14 -17 21.5 -37t8.5 -51.5t0.5 -48t-4.5 -64t-5 -61.5q-15 -5 -77 0.5t-64 5.5q17 158 -40 243 q-25 38 -45 34q-5 -2 -8 -5q-7 -28 -5 -104t0.5 -195.5t-11.5 -171.5q43 -53 90.5 -133t93 -177t68.5 -201t10 -183q-4 -33 -17.5 -66.5t-50 -69.5t-87.5 -48q-5 -1 -25 -7t-38 -10.5t-26 -5.5q-9 -19 -7 -54t-1 -54q-2 -7 -19 -10.5t-33.5 -2.5t-16.5 4q0 6 1.5 15.5 t3.5 19.5t4 21t3 20t1 16.5t-2 12t-7 4.5q-90 2 -123 35q-34 30 -54 67.5t-24.5 60t-5.5 53.5l-2 30q0 11 -4 36.5t-3 43t11 28.5q17 16 69 13.5t78 -15.5q5 -5 2 -23.5t-3 -54t2 -70.5t18.5 -74.5t46.5 -66.5q-6 149 -9.5 285t-3.5 189t1 75q6 32 -42 127t-85 139 q-39 48 -65.5 113.5t-29.5 128.5q0 41 -0.5 42.5zM230 1319.5q2 -48.5 6 -84.5q6 -42 20 -95.5t27 -66.5q7 49 5.5 191t2.5 184q-31 3 -47 -38.5t-14 -90zM342 150q30 -13 58 35t32 85q9 75 -2.5 151.5t-36.5 121.5q0 2 -23 35.5t-26 33.5q11 -158 10.5 -227t-6.5 -143 t-6 -92z" />
<glyph unicode="%" horiz-adv-x="813" d="M53 1339q-2 27 2.5 115t10.5 105q9 33 27.5 51t34.5 22.5t40 5.5q96 3 129 -26.5t43 -134.5q16 -169 2 -332q-2 -22 -2.5 -63t-1.5 -68t-8 -61t-20 -54t-39 -34.5t-64 -14.5q-74 0 -111.5 73.5t-34.5 190.5q0 41 -4 133zM145 1399q0 -12 3 -60t2 -63t0 -55t0 -58 q0 -38 -0.5 -97t13 -115t38.5 -58q28 -2 44 19.5t19 57.5t2.5 72t-3 76t-1.5 56q6 76 1.5 210t-13.5 181l-1 5q-1 5 -1.5 7t-3 8t-5.5 7.5t-8.5 5.5t-12.5 2.5t-17 -1.5q-2 0 -8.5 -1.5t-9.5 -2t-8.5 -2t-8 -3t-6 -3.5t-5.5 -5t-3 -7q-7 -34 -7 -176zM190 -39 q34 97 105.5 497.5t91.5 571.5q4 34 31 210t53 337t27 162q14 2 48 0t38 -6q1 -1 -32.5 -203.5t-71 -448.5t-44.5 -333q-3 -37 -67.5 -353t-94.5 -436q-51 -6 -84 2zM461 295l4 92q4 92 4 133q-3 118 34 191t111 73q38 0 64 -14.5t39 -34.5t20.5 -54t8 -61t1.5 -68t3 -63 q14 -163 -2 -331q-10 -105 -43.5 -135t-129.5 -27q-24 1 -40 5.5t-34.5 23t-27.5 51.5q-6 17 -10 104.5t-2 114.5zM553 236q0 -148 6 -177q1 -4 3 -7t5.5 -5t6 -3.5t8 -3t8.5 -2t9.5 -2t8.5 -1.5q10 0 17 -1.5t12 2.5t8.5 6t5.5 7.5t3 8t2 7.5l1 5q9 47 14 181t-1 210 q-1 16 1.5 55.5t3.5 74.5t-2 70.5t-19 56.5t-44 19q-25 -2 -39 -57t-14 -113v-96q1 -18 0 -58t0 -55t-1.5 -63t-2.5 -59z" />
<glyph unicode="&#x26;" horiz-adv-x="954" d="M84 236q-6 63 6 190q2 17 6 36t10.5 43t8.5 34q19 88 69.5 227t89.5 209q-8 18 -35.5 74.5t-43.5 91.5t-36 94t-25 103.5t2 96.5t32 95q57 90 123 102q26 6 47.5 8t32 1.5t28.5 -3.5t25 -4q25 -3 53.5 -21t40.5 -30.5t35 -36.5q37 -41 53 -166v-39q-7 -88 -48 -223 t-79 -207q11 -30 44.5 -133t60.5 -171t55 -115q65 105 147 247q46 62 148 -53q-1 -7 -7.5 -18.5t-6.5 -12.5q-26 -43 -94 -145.5t-103 -167.5q-16 -32 -16 -45q-2 -9 34.5 -68t65.5 -84q25 -19 43 -49.5t6 -60.5q-13 -31 -49.5 -45.5t-65.5 -12.5q1 0 -5.5 7.5t-13 14.5 t-5.5 7q-23 16 -49.5 61t-38.5 58q-10 -7 -21 -33t-14 -31q-49 -81 -156 -81q-7 0 -32.5 -2.5t-38.5 -0.5q-106 28 -140 48q-128 74 -143 211zM252.5 297.5q-0.5 -43.5 5.5 -71t22.5 -53t43.5 -34.5q5 -1 17.5 -5t19 -5.5t19.5 -3.5t19 0q28 5 59 49.5t42 79.5q5 14 12 34.5 t10.5 32t5.5 23.5q-3 9 -64 157.5t-87 237.5q-21 -28 -63.5 -145t-47.5 -152q-6 -45 -9.5 -73t-4 -71.5zM307 1425.5q-6 -51.5 8.5 -113t32.5 -115t33 -79.5q35 37 49 155q16 134 -18 194q-25 42 -68 24q-31 -14 -37 -65.5z" />
<glyph unicode="'" horiz-adv-x="317" d="M81 1578.5q-1 22.5 0.5 40t6.5 30.5q11 35 20.5 43t41.5 14t60.5 -28t22.5 -72q-2 -15 -5 -60t-9 -73q-1 -8 -10.5 -90t-20.5 -133.5t-26 -55.5q-9 -2 -18 13.5t-16 43.5t-13 58.5t-11 64.5t-7.5 54t-4.5 34q-1 10 -4 36.5t-4.5 42t-2.5 38z" />
<glyph unicode="(" horiz-adv-x="458" d="M70 711v116q1 10 2 57t2 58q0 24 26.5 196t36.5 212q50 143 102.5 251.5t73.5 129.5q8 8 70 0q-2 -5 -18.5 -48.5t-36.5 -94t-33 -81.5q-25 -57 -59 -211q-4 -34 -12 -92t-10.5 -79.5t-7 -63.5t-5.5 -66t-2 -63t0 -79t4 -91q2 -23 12.5 -143.5t21.5 -223.5t21 -145 q47 -188 131 -342l-59 -4q-13 -1 -32.5 23.5t-41 66t-37 75.5t-31.5 72q-20 48 -33.5 94.5t-28.5 115t-24 104.5q-12 49 -24 132t-8 124z" />
<glyph unicode=")" horiz-adv-x="466" d="M63 -92q101 184 142 350q10 42 17.5 95.5t14.5 133.5t9 95q3 26 0.5 99.5t-2.5 90.5q0 25 1 86.5t0.5 105t-3.5 83.5q-8 185 -25 251q-32 143 -57 201q-13 31 -33.5 84t-37.5 97.5t-19 50.5q61 8 69 0q17 -17 96.5 -192t90.5 -216q10 -39 31.5 -197.5t21.5 -183.5 q1 -11 2 -58t2 -57v-116q4 -41 -7 -125.5t-22 -130.5q-10 -38 -23.5 -101.5t-26 -107.5t-32.5 -92q-107 -252 -149 -250z" />
<glyph unicode="*" horiz-adv-x="608" d="M72 1468q-9 24 12 35q30 9 51 8.5t60.5 -5.5t54.5 -5q-7 8 -34 29t-54.5 50t-46.5 67q-8 16 -2 33t18.5 22t24.5 -4q28 -14 69.5 -85t53.5 -83q-3 48 -9.5 60.5t-9.5 37.5q-3 29 0 55q2 13 18.5 23t34.5 6q19 -4 21.5 -42.5t-2.5 -87t-2 -60.5q17 11 48 100t52 90 q24 1 34 -9.5t7.5 -27t-8.5 -30.5t-12 -23q-3 -3 -44 -49t-49 -68q4 -4 45 3.5t77 11t55 -12.5q5 -4 4.5 -28t-13.5 -29q-21 -9 -87.5 3.5t-82.5 0.5q14 -16 47.5 -36t54.5 -40.5t21 -48.5q0 -16 -17 -29.5t-28 -11.5q-19 2 -38.5 27t-39 59t-30.5 45l10 -125q0 -16 1 -31 t-8 -23.5t-28 -2.5q-3 1 -11 2.5t-12 3t-9 5t-7 9.5q-7 28 -4 42.5t13 41t12 39.5q2 11 1.5 17t-2 12t-1.5 8q0 6 -9 -8q-10 -18 -14 -20q-9 -11 -23.5 -30.5t-22.5 -29t-19.5 -19.5t-22.5 -14q-18 -7 -31.5 4t-11.5 29q3 18 28 42.5t56 49t39 33.5q-19 5 -61 -4t-74.5 -8.5 t-42.5 26.5z" />
<glyph unicode="+" horiz-adv-x="727" d="M80 800.5q4 56.5 2 78.5q97 13 192 6q0 20 3 91.5t2 135.5q9 12 67 12.5t80 -4.5q2 -6 0.5 -90.5t-0.5 -144.5q29 2 106.5 0.5t100.5 -8.5q22 -90 0 -140q-22 -3 -104.5 2t-92.5 -4q-8 -38 -7.5 -105.5t-4.5 -97.5q-7 6 -70 5.5t-67 -7.5q-14 90 -11 207q-59 3 -192 -2 q-8 9 -4 65.5z" />
<glyph unicode="," horiz-adv-x="344" d="M84 23.5q0 9.5 1 26t1 26.5q-1 19 16.5 40t32.5 23q7 1 17.5 3.5t15.5 3t15 -2t22 -8.5q19 -10 35 -31.5t18 -35.5q0 -1 1.5 -12t2.5 -22t0 -14q-9 -40 -28 -74.5t-36 -52t-32 -31t-16 -14.5q-33 17 -35 19q7 8 36.5 43t36.5 45q-32 4 -53.5 11t-32 14.5t-14.5 20.5 t-4 22.5z" />
<glyph unicode="-" horiz-adv-x="790" d="M99 800q1 21 3 41t4.5 34.5t2.5 13.5q140 10 329 2q18 -1 84.5 0.5t108.5 2t57 -2.5q6 -2 4.5 -21t-0.5 -24q-1 -19 2.5 -42t2 -31.5t-12.5 -12.5q-12 -4 -57.5 -4.5t-102.5 0.5l-57 2q-268 0 -354 -6q-8 -1 -11.5 13t-2.5 35z" />
<glyph unicode="." horiz-adv-x="344" d="M92 72q0 10 1.5 18.5t3 14.5t7 13t7.5 10t10 8.5t9.5 7t11 7t10.5 5.5q52 8 79.5 -18t24 -66t-32.5 -72q-121 -43 -131 72z" />
<glyph unicode="/" horiz-adv-x="481" d="M47 -61q34 97 105.5 497.5t91.5 571.5q4 34 31 210t52.5 336.5t26.5 161.5q12 2 39 1t31 -5l-34 -201q-33 -201 -71 -445t-45 -331q-4 -43 -62.5 -363t-86.5 -433q-45 -8 -78 0z" />
<glyph unicode="0" horiz-adv-x="700" d="M55 1016q5 184 21 311q8 58 45 138t74 114q15 15 55.5 36.5t62.5 22.5q153 0 236 -98q23 -28 38.5 -74.5t21 -77.5t13 -104t9.5 -92q-2 -77 12.5 -362.5t5.5 -499.5q-5 -109 -47.5 -206.5t-95.5 -117.5q-112 -37 -207.5 -13.5t-161.5 93.5q-16 16 -35 43t-22 45 q-10 60 -19 221q-2 45 -2 185q-6 372 -4 436zM213 954.5q0 -43.5 1 -95.5t1 -73q0 -35 -1 -100t-0.5 -111t3.5 -100q9 22 19.5 52t17 53.5t16.5 59t15 52.5q8 26 22.5 70t18.5 55q40 124 72.5 210.5t42 109t14 45t4.5 67.5q0 16 -2.5 33.5t-8 36t-9 30.5t-10 29.5t-7.5 20.5 q-10 26 -17 42t-22 34t-31 20q-10 2 -25 -2.5t-22 -11.5q-40 -40 -57.5 -102t-28.5 -158q-6 -21 -4.5 -95.5t0.5 -97.5q-2 -30 -2 -73.5zM279 197q23 -38 52.5 -54.5t84.5 -9.5q24 49 40.5 109t25 106t13 125.5t5 116t-0.5 132t-1 122.5q-1 0 -2 28.5t-2 28.5 q-22 -71 -85 -265.5t-98.5 -310.5t-31.5 -128z" />
<glyph unicode="1" horiz-adv-x="399" d="M77 1539.5q0 10.5 0.5 20.5t0.5 11q0 11 55 28q166 54 182 54h5.5t4.5 -1.5t4 -6t1 -11.5q0 -15 -1 -87.5t-1 -90.5q0 -5 -1 -360.5t-1.5 -615.5t0.5 -355q0 -6 0.5 -26t0.5 -35t-0.5 -32.5t-3 -28.5t-6.5 -13q-18 -10 -86 -10t-71 22q-1 7 2 453t2 452q-4 22 1.5 211 t0.5 246q-1 8 1.5 44.5t0.5 47.5q1 4 -6 3q-6 0 -27 -7q-37 -11 -41 -6q-5 5 -9 16.5t-5.5 24t-2 27.5t-0.5 25.5z" />
<glyph unicode="2" horiz-adv-x="737" d="M75.5 187.5q0.5 17.5 3 47.5t3.5 48q2 61 86 258q40 96 137 258q43 74 123 274q18 46 28.5 76t24 83t14.5 90.5t-10 78.5t-39 67q-30 27 -68 24t-59 -30q-46 -57 -51 -114q-1 -8 3.5 -45t-3.5 -46q-9 -6 -65 -6q-36 0 -53.5 1t-18.5 1q-2 16 -3.5 38t-4 79t5.5 68 q13 42 40.5 87.5t57.5 67.5q31 26 80.5 46t89.5 16q140 -17 221 -142q30 -47 37.5 -104.5t-0.5 -140.5q-3 -45 -18 -101t-27.5 -88t-38.5 -96q-8 -21 -24.5 -65.5t-26.5 -70.5t-26.5 -60.5t-32.5 -61.5q-161 -264 -213 -453q-8 -29 -8.5 -56t2.5 -56q9 -6 88 -7.5t161 -0.5 t87 0q16 -2 8 -74q-1 -6 1.5 -46.5t-1.5 -43.5q-4 2 -25.5 2t-52 -1t-39.5 -1q-24 -2 -78 1t-80 1q-110 -6 -225 8q-6 75 -8.5 123.5t-2 66z" />
<glyph unicode="3" horiz-adv-x="743" d="M93.5 1510q-0.5 27 2 69t2.5 55q0 6 189 6q33 0 158.5 1t156.5 1q16 0 8 -96q-1 -15 -6.5 -30.5t-16 -37.5t-14.5 -32q-53 -126 -88.5 -203.5t-45.5 -94.5t-18.5 -37.5t-21.5 -63.5q81 0 127.5 -19.5t67 -52.5t37.5 -98q4 -18 8 -45.5t8 -61.5t6 -47q4 -66 3.5 -95.5 t-4.5 -90t-5 -95.5q-5 -152 -29 -243.5t-88 -153.5q-89 -83 -231 -47q-6 2 -15.5 6.5t-22 11.5t-19.5 11q-131 79 -142 252q0 4 -2 28t-2.5 40.5t-1 38t1.5 36t6 20.5q7 7 76 7q72 0 76 -3q5 -4 4.5 -53t6 -112t28.5 -97q10 -17 34 -25t50 -5q28 3 47 23t28.5 46.5 t14.5 68.5t5.5 76t0.5 84t2 78q6 85 5 144t-17 123q-10 47 -21 71.5t-34 42.5q-16 2 -68.5 0t-87 -3.5t-45.5 3.5q-1 3 -2 8t-3 23.5t3 38.5q3 15 26.5 73t28.5 79q20 53 46 113t59.5 133.5t44.5 99.5q-24 1 -105.5 -1.5t-129 -3.5t-75.5 5q-6 4 -6.5 31z" />
<glyph unicode="4" horiz-adv-x="851" d="M51.5 387q3.5 19 1.5 27q9 213 90 409q9 25 31.5 67t30.5 60q17 39 114 294t164 372q2 2 5 10.5t5.5 15.5t4.5 7q5 0 49 3t69 0.5t25 -12.5q0 -50 -74 -217q-39 -85 -100.5 -263.5t-99.5 -264.5q-6 -13 -44 -85.5t-49 -111.5q-9 -31 -19 -90.5t-19 -89.5q40 -1 127.5 6.5 t91.5 7.5q12 147 12 281q0 78 20 123q4 7 17.5 8.5t32.5 0t24 -0.5q11 1 24 3.5t19.5 3.5t13.5 0.5t9.5 -6.5t3.5 -17q0 -2 3 -69.5t1 -88.5q-4 -20 -5.5 -33t-2 -28t-0.5 -23t1 -31t1 -39q0 -40 -4 -98q0 -2 34.5 1.5t69.5 6t55 -5.5q11 -5 15.5 -16t4 -21.5t-2.5 -27.5 t-2 -25q0 -5 3 -24t3.5 -30t-4.5 -20q-11 -8 -87 -11t-89 -7q-6 -65 -4.5 -137t4.5 -142t2 -75q-1 -7 -17 -8.5t-33.5 -0.5t-29.5 -2q-89 -3 -85 12q1 5 3 3q-3 6 -3 33t1 52.5t0 43.5q-3 34 -3 122.5t-3 100.5q-6 3 -22 4.5t-42 0.5t-45.5 -2.5t-51 -3.5t-40.5 -3 q-39 -4 -97 -4t-83 6q-19 4 -23.5 17t-1 32z" />
<glyph unicode="5" horiz-adv-x="714" d="M58.5 880q-0.5 9 2 23t2.5 17q7 370 0 454q-7 95 0 209q-10 60 9 66q29 5 56 4t75 -4.5t65 -3.5q32 0 68.5 -0.5t48 -0.5t30 1.5t42.5 5.5q28 5 90.5 2.5t62.5 -15.5l4 -155q-16 0 -59.5 -0.5t-80.5 -0.5t-62 1q-97 0 -160 -2q-1 -39 -5 -190.5t-3 -225.5 q36 33 136.5 35.5t141.5 -27.5q23 -16 41.5 -34.5t32 -43t23.5 -44t17 -53t11 -53.5t7 -62t4 -62.5t3 -70.5t3 -72q1 -20 3 -57.5t3 -68t0 -57.5q-5 -101 -15 -156.5t-39 -111.5q-30 -67 -83 -113t-121 -45q-11 0 -29.5 -1.5t-32.5 -1.5t-24 3q-36 6 -109 51t-84 72 q-31 67 -41 166q-9 84 -2 158q1 13 81 13.5t81 -11.5q0 -1 3 -26t3 -54q-5 -44 18 -133q8 -28 49 -59t72 -25q22 4 43 47.5t29 81.5q6 28 9.5 56.5t5.5 70.5t2.5 61t1.5 77.5t1 70.5q0 108 -8 159q-3 14 -7 39.5t-7 41t-7.5 34.5t-10.5 31q-14 33 -61 49.5t-85 -6.5 q-16 -12 -25.5 -23t-20 -27.5t-21.5 -29.5q-5 -1 -72.5 1.5t-67.5 -3.5q-19 1 -28 10t-9.5 18z" />
<glyph unicode="6" horiz-adv-x="755" d="M77.5 743q1.5 119 4.5 170q2 40 2.5 73t0.5 52.5t-1 63t-2 78.5q0 27 -0.5 70t-0.5 60t1 48t3.5 43.5t7 36t11.5 37t17.5 34.5t24 39.5t32.5 42.5q7 9 92 66q66 31 147.5 19.5t121.5 -46.5q28 -24 43 -45t20 -53q5 -26 13 -99t12 -92q-6 -20 -71.5 -21.5t-92.5 11.5 q-9 10 -5.5 26.5t0.5 53.5t-20 66q-18 32 -45.5 38.5t-51.5 -8t-40 -41.5q-6 -10 -8.5 -27.5t-3.5 -40.5t-2 -32q-8 -37 -11 -149.5t-6 -135.5q49 34 126 33t118 -31q38 -28 72.5 -71.5t44.5 -79.5q10 -33 26 -156q2 -17 2.5 -53t2.5 -53q13 -180 8 -248q-1 -15 -2.5 -48 t-4 -56.5t-6.5 -41.5q-21 -91 -43.5 -134.5t-85.5 -106.5q-33 -38 -65 -51q-50 -20 -121.5 -15t-110.5 29q-19 13 -54 43t-44 45q-14 23 -23 57t-11.5 55t-6.5 72q-14 168 -14 314q-2 40 -0.5 159zM262 424q2 -21 2.5 -71t3.5 -77q7 -82 56 -126q11 -9 27.5 -15t27.5 -2 q44 18 73 72.5t37 122.5q4 36 4.5 74t-0.5 90t-1 69q0 27 -5 109q-2 17 -1.5 58.5t-2.5 55.5q-7 62 -20 129q-5 24 -25.5 47t-40.5 19q-10 -2 -25 -4t-22 -3t-17.5 -7t-21.5 -17q-6 -6 -24 -38.5t-21 -43.5q-26 -124 -4 -442z" />
<glyph unicode="7" horiz-adv-x="638" d="M57 1564.5q-3 71.5 0 84.5q2 6 24.5 8t52.5 1.5t61 0.5q210 6 223 6q139 12 145 -4q4 -23 1 -133t-9 -160q-18 -119 -41.5 -304.5t-42.5 -305.5q-4 -28 -24 -193.5t-35 -226.5q-8 -30 -25 -171.5t-41 -176.5q-4 -6 -82 -6q-12 0 -29 -1.5t-25 -1.5t-18 0.5t-16.5 2.5 t-11.5 6q10 59 42 262t34 215q6 30 26 168t37.5 259.5t20.5 125.5q1 1 33.5 235.5t35.5 243.5q-42 2 -175.5 -2t-149.5 -4q-8 0 -11 71.5z" />
<glyph unicode="8" horiz-adv-x="731" d="M45 555q-4 65 6.5 109.5t40.5 91.5q25 40 75 67.5t77 34.5q2 1 -4 5.5t-16.5 11t-21.5 13.5t-21.5 14t-14.5 11q-15 12 -26 27t-16 25.5t-13.5 31.5t-14.5 33q-9 19 -12 50t-2 56t0 50q0 30 -3 114t-3 113q0 24 16 88q4 12 8 20.5t7 14.5t8 12.5t7.5 10t9.5 11.5t11 13 q27 30 93.5 57t123.5 33q58 3 136 -27t108 -69q26 -34 37.5 -98.5t13.5 -156.5t2 -95q10 -94 -11 -187t-56 -135q-16 -18 -38 -28.5t-30 -16.5q9 -9 28.5 -18.5t36.5 -18t37.5 -34t35 -62.5t24.5 -108t10 -166q0 -71 -20 -185t-43 -159q-45 -87 -133 -125 q-44 -18 -105.5 -18t-109.5 18q-81 29 -113 61q-39 41 -61.5 83.5t-32.5 107.5q-7 43 -19 145q-11 160 -12 174zM223 408q1 -13 3 -40t4 -49t6 -38q18 -77 34 -111q10 -20 58.5 -33.5t79.5 -5.5q10 1 31 22t26 33q8 15 18 86q57 340 -43 459l-12 7q-13 8 -30 15t-29 7 q-57 -7 -87.5 -48.5t-50.5 -115.5q-14 -66 -8 -188zM263.5 1246.5q0.5 -45.5 0.5 -48.5q0 -84 6 -104q6 -23 39.5 -71.5t63.5 -49.5q33 -1 54.5 4t33 20.5t16.5 27.5t11 39.5t10 41.5q9 30 9 80.5t-4 91t-11 98.5t-9 76q-2 25 -25.5 52t-62.5 30q-32 1 -65.5 -20t-38.5 -37 q-10 -10 -16 -34t-8.5 -62.5t-3 -63.5t0 -70.5z" />
<glyph unicode="9" horiz-adv-x="755" d="M61 1237q1 15 2.5 48t4 56t6.5 41q21 91 44 135.5t85 106.5q33 38 65 51q50 20 121.5 15t110.5 -29q19 -13 54 -43t44 -45q36 -58 47 -184q14 -168 14 -314q2 -40 0.5 -159.5t-4.5 -170.5q-8 -148 -6 -266q0 -23 0.5 -69.5t0 -61.5t-1.5 -49t-3.5 -45.5t-7 -38 t-11.5 -40.5t-18 -37t-24.5 -44t-32.5 -47q-7 -9 -47.5 -26.5t-42.5 -18.5q-66 -31 -147 -19.5t-121 46.5q-56 48 -64 98q-25 122 -25 190q8 19 83.5 18.5t80.5 -7.5q1 -1 -1 -24t3.5 -57.5t22.5 -64.5q18 -32 45.5 -38.5t51.5 8t40 41.5q10 17 19.5 57t9.5 63q1 22 -1 140 t3 125q-49 -34 -126 -33.5t-118 30.5q-37 28 -72 71.5t-45 80.5q-10 33 -26 156q-2 17 -2 52.5t-2 53.5q-14 186 -9 248zM237.5 1256q-0.5 -39 1 -88.5t1.5 -69.5q0 -43 4 -109q2 -17 1.5 -59t2.5 -56q7 -62 20 -129q4 -21 23 -39t43 -26q10 2 25 4t22 3t17.5 7t21.5 17 q6 6 25 40.5t22 45.5q29 137 8 436q-2 19 -3.5 67.5t-4.5 75.5q-7 87 -59 133q-11 9 -28 15t-28 2q-44 -18 -73 -72.5t-37 -122.5q-4 -36 -4.5 -75z" />
<glyph unicode=":" horiz-adv-x="342" d="M92 326q0 10 1.5 18.5t3 14.5t7 13t7.5 10t10 8.5t9.5 7t11 7t10.5 5.5q52 8 79.5 -18t24 -66t-32.5 -72q-121 -43 -131 72zM92 1176q0 10 1.5 18.5t3 14.5t7 13t7.5 10t10 8.5t9.5 7t11 7t10.5 5.5q52 8 79.5 -18t24 -66t-32.5 -72q-121 -43 -131 72z" />
<glyph unicode=";" horiz-adv-x="342" d="M84 70.5q0 9.5 1 26t1 26.5q-1 19 16.5 40t32.5 23q7 1 17.5 3.5t15.5 3t15 -2t22 -8.5q19 -10 35 -31.5t18 -35.5q0 -1 1.5 -12t2.5 -21.5t0 -13.5q-9 -40 -28 -74.5t-36 -52t-32 -31t-16 -14.5q-33 16 -35 18q7 8 36.5 43t36.5 45q-32 4 -53.5 11t-32 14.5t-14.5 20.5 t-4 22.5zM92 969q0 10 1.5 18.5t3 14.5t7 13t7.5 10t10 8.5t9.5 7t11 7t10.5 5.5q52 8 79.5 -18t24 -66t-32.5 -72q-121 -43 -131 72z" />
<glyph unicode="&#x3c;" horiz-adv-x="729" d="M66 821q0 30 4 39q2 4 46 26.5t108.5 54t78.5 38.5q23 11 184 68t168 57l1 -18q4 -50 1 -54q-4 -6 -154.5 -61.5t-156.5 -61.5q-5 -3 -100.5 -44t-100.5 -44q1 -1 88.5 -33.5t88.5 -33.5q2 0 112 -43.5t119 -48.5l19 -8q20 -7 40.5 -16t38 -18t17.5 -12q0 -69 -2 -82 q-49 16 -180.5 72t-198.5 88q-7 4 -62.5 27.5t-105 45t-49.5 23.5q-4 9 -4 39z" />
<glyph unicode="=" horiz-adv-x="729" d="M75.5 649.5q-1.5 8.5 2 31.5t2.5 42q1 5 -0.5 24t4.5 21q15 3 57 2.5t108.5 -2t84.5 -0.5q189 8 330 -2l9 -72q4 -66 -14 -65q-86 6 -354 6l-57 -1q-57 -2 -102.5 -1.5t-57.5 4.5q-11 4 -12.5 12.5zM78 900q1 21 3 41t4.5 34.5t2.5 13.5q141 10 330 2q18 -1 84.5 0.5 t108.5 2t57 -2.5q6 -2 4.5 -21t-0.5 -24q-1 -19 2.5 -42t2 -31.5t-12.5 -12.5q-12 -4 -57.5 -4.5t-102.5 0.5l-58 2q-268 0 -354 -6q-8 -1 -11.5 13t-2.5 35z" />
<glyph unicode="&#x3e;" horiz-adv-x="729" d="M68 608q0 3 17.5 12t38 17.5t39.5 16.5l19 8q9 5 119.5 48.5t112.5 43.5q1 1 88 33.5t88 33.5q-5 3 -100.5 44t-100.5 44q-6 6 -156.5 61.5t-154.5 61.5q-1 2 2 68q0 5 0 4q7 0 168 -57t184 -68q15 -8 79 -39t108.5 -53.5t46.5 -26.5q4 -9 4 -39t-4 -39q0 -2 -49.5 -23.5 t-105 -45t-62.5 -27.5q-67 -32 -198.5 -88t-180.5 -72q-2 13 -2 82z" />
<glyph unicode="?" horiz-adv-x="733" d="M84 1223q-12 58 2.5 141t50.5 137q6 8 54.5 53t58.5 52q61 37 84 39q124 9 211 -47.5t117 -153.5q20 -78 14.5 -178.5t-27.5 -175.5q-11 -36 -34.5 -74t-56 -80.5t-46.5 -65.5q-7 -9 -18 -32t-13 -27q-39 -73 -53 -182q-6 -20 -1.5 -84t1.5 -115q0 -3 4 -36t-2 -48 q-18 -2 -111 -2q-14 1 -21 6.5t-8 12t-2.5 20t-4.5 23.5q-3 15 -4 47t-3 43q0 6 -4.5 46t-3.5 47t2 60q3 88 13 137q11 46 37 99t47.5 86t56.5 82q44 63 66.5 119.5t23.5 138.5q0 141 -45 162q-12 7 -44.5 10.5t-45.5 1.5q-12 -1 -54 -34.5t-51 -45.5q-14 -15 -29.5 -52 t-15.5 -57v-41q-2 -12 0.5 -21.5t-2.5 -23.5q-31 -13 -85 -9.5t-58 22.5zM264 117q10 33 35 49q21 14 54.5 12t56.5 -20q31 -24 34.5 -84.5t-28.5 -87.5q-4 -1 -7 -4.5t-12 -4.5q-79 -3 -105 29q-7 10 -24 45q-14 33 -4 66z" />
<glyph unicode="@" horiz-adv-x="1249" d="M65 954q11 133 76 236q67 105 182.5 180t237.5 84q115 9 172 -18q53 -7 115.5 -37t95.5 -58q76 -60 97 -83q46 -50 71 -132q21 -66 36 -170.5t5 -158.5q-15 -84 -38.5 -139.5t-70.5 -94.5q-13 -10 -67 -25.5t-76 -15.5q-42 0 -71.5 7t-46.5 20.5t-25 24t-16 29t-11 22.5 q-16 -48 -34 -70t-60 -33q-5 -2 -20 -8.5t-21 -7.5q-19 -4 -36.5 -5t-33.5 3t-28.5 8t-27 12.5t-22.5 13.5t-22 15q-6 7 -14.5 16.5t-11.5 12.5t-8.5 10.5t-7.5 11t-7 13.5t-9 19.5t-12 27.5q-11 22 -12.5 65.5t2.5 61.5q11 53 45 139q3 7 13 32.5t14.5 36t13 28.5 t17.5 30.5t20 23.5t23.5 18.5t21 11.5t27 6.5t27 3.5t35 1.5t38.5 1.5q20 0 55.5 -12.5t59.5 -38.5q0 2 -1 16.5t5 30.5t18 15q20 -2 34 -1t29.5 -1.5t28.5 -10.5q0 -39 -6 -85t-16 -102.5t-14 -88.5q0 -2 -10.5 -61.5t-14.5 -95t2 -54.5q0 -13 13.5 -27t25.5 -16 q61 -7 110 21.5t75.5 70.5t39.5 92q11 61 9.5 130t-29.5 156t-80 159q-45 49 -119.5 96t-136.5 61q-79 21 -173 6t-153 -67q-7 -6 -35 -31t-38.5 -35.5l-35.5 -35.5t-37 -41.5t-29.5 -43.5t-26 -50.5t-15 -53.5t-6.5 -61q-3 -126 3.5 -180.5t35.5 -184.5q6 -24 54.5 -97.5 t76.5 -101.5q24 -22 64 -49t67 -39q63 -26 123 -32t106.5 2.5t99.5 35.5t90.5 53.5t90.5 69.5q26 -24 33 -28.5t10 -7.5q-11 -25 -31.5 -48t-51.5 -45t-52 -35t-58 -34q-67 -37 -184 -45q-66 -5 -166 30q-107 35 -162 88q-8 8 -35.5 33t-37 35.5t-25 31t-24.5 40.5 q-72 110 -107.5 237t-24.5 260zM442 715q-5 -9 18.5 -71t45.5 -69q23 -7 62 19t53 49q147 255 69 365q-19 21 -57 20.5t-55 -12.5q-39 -25 -63.5 -54t-45.5 -77q-11 -28 -21 -88t-6 -82z" />
<glyph unicode="A" horiz-adv-x="753" d="M33 14q0 45 35 318q1 12 2.5 33t3.5 38t6 33q18 191 35 322q10 72 39 207.5t39 199.5q30 186 63 310q9 33 28 83t29 82q27 15 68 15h14q50 -3 70 -21q6 -5 9 -13t5.5 -22.5t7.5 -27.5q30 -96 64 -285q80 -474 100 -837q2 -39 12 -113.5t13 -102.5q2 -19 11 -73.5t14 -97 t1 -58.5q-6 -12 -52 -15q-9 -1 -19 -1q-36 0 -66 10q-22 39 -33 125q-3 22 -16.5 110t-21 149t-11.5 116q-151 8 -220 8h-25q-17 -71 -23 -154q-3 -22 -15 -77.5t-16 -84.5q-3 -18 -7 -63t-8 -78t-9 -41q-7 -11 -56.5 -9t-70.5 15zM256 643q8 -1 53 -5t54.5 -4.5t55 -2.5 t56.5 2q-9 71 -21.5 229t-28.5 284.5t-40 221.5q-23 -94 -31 -149q-4 -30 -17 -90t-15 -68q-7 -39 -25 -125.5t-28.5 -155.5t-12.5 -137z" />
<glyph unicode="B" horiz-adv-x="755" d="M102 1554q0 42 4 78q1 19 86 19q47 0 119 -6q71 -6 149 -38t113 -73q69 -76 91 -212q11 -72 10 -152q0 -70 -8 -146q-1 -5 -5 -30t-6 -33.5t-7 -30.5t-9 -32t-12 -27t-17 -26.5t-21.5 -19t-27.5 -14.5q88 -29 112 -135q0 -2 0.5 -3.5t0.5 -2.5q23 -79 23 -170 q0 -153 -64 -342q-19 -55 -101 -129q-23 -20 -81.5 -29t-108.5 -9t-116 2.5t-70 2.5q-37 0 -41 4q2 17 1.5 105.5t-1.5 248.5q-3 320 -7 658t-4 360t-1 81q-1 39 -1 71v30zM258 1513q0 -117 7 -328.5t7 -303.5q44 -12 100 -12h24q70 3 89 18q42 33 51 143q2 30 2 62 q0 81 -16 167q-24 119 -67 183q-17 25 -33 35q-55 39 -162 45q-3 -1 -2 -9zM260 133q41 -13 82 -15q7 0 13 -1q33 0 65 11q38 13 53 44l12 24l17 34t14.5 33.5t9.5 33.5q8 40 12 64.5t10 65.5t7 68.5t1.5 63t-6.5 60t-17 49t-28.5 40.5t-43.5 25q-15 5 -44.5 7t-53.5 2 t-55.5 -0.5t-35.5 -0.5q-2 0 -4 -4l-2 -4v-31v-60q-2 -58 -2 -73v-184t-4 -252z" />
<glyph unicode="C" horiz-adv-x="720" d="M94 528q4 186 11 428q6 212 6 259v10q0 13 -1 37.5t-1 46t2 41.5q13 154 84 225q70 70 153 72h6q52 0 107 -16q58 -17 96 -44q63 -43 85 -125q21 -76 20 -190v-21q0 -116 -17 -147q-5 -10 -52 -10h-13q-60 2 -60 16q0 84 -4 174q-3 49 -24 137q-17 61 -39 78 q-15 12 -45 18.5t-43 4.5q-37 -4 -65.5 -53t-33.5 -101q-10 -135 -10 -205q-3 -91 -3 -203q0 -37 -1 -78q0 -80 1 -176q1 -142 1 -180q0 -22 -1 -86v-53.5v-32.5q1 -22 6 -64t18 -71t34 -57q25 -30 47 -33q9 -2 18 -1q24 0 52 11q38 16 57 41q16 22 18.5 121t2.5 100 q7 15 62 19q11 1 20 1q41 0 65 -15q-1 -29 -1.5 -86.5t-2 -86.5t-12 -67.5t-29.5 -65.5q-32 -45 -99 -77.5t-143 -35.5h-9q-70 0 -128 42q-31 24 -55 55q-59 72 -74 160q-6 71 -6 186q-1 46 0 98z" />
<glyph unicode="D" d="M86 1331q-5 74 -5 136q0 101 13 173q6 6 30.5 5.5t29.5 -0.5q41 2 59.5 1t56.5 -6t54 -6q152 -15 251 -90q34 -26 55.5 -85t27.5 -133q8 -74 10 -160q1 -43 1 -84q1 -42 -1 -83q-1 -37 -2 -72q0 -42 2 -83q3 -130 3 -214t-3 -124q-3 -41 -3 -128.5t-6 -149.5t-26 -105 q-19 -42 -98 -98q-13 -9 -28 -15t-24.5 -8t-31.5 -6l-33 -6q-25 -5 -94 -5q-34 -1 -80 1q-136 4 -146 8q-6 3 -2 24q-4 158 -4 250v80v57q0 15 1 40q0 50 -1 141q0 679 -6 745zM240 1491q9 -395 9 -784q0 -292 -5 -582q23 -9 62 -10q28 -1 64 5q87 12 113 46q25 35 29 158 q10 165 10 264q0 40 -1 135q-1 63 -1 113v47q0 65 6 135v23v45q-2 42 -2 47q0 272 -82 335q-15 12 -42 20.5t-48.5 11t-59 6t-50.5 5.5q-2 -1 -2 -4t0.5 -7t-0.5 -9z" />
<glyph unicode="E" horiz-adv-x="602" d="M96 1333q0 12 1 35t1 41.5t-2 34.5v63q-3 27 -3 53q0 39 7 76q46 8 84 10.5t87.5 3t76.5 1.5q25 1 47 1q114 0 137 -18q-2 -7 0.5 -35t3.5 -47.5t-8 -29.5q-6 -4 -21.5 -4.5t-30 0.5t-27.5 0q-18 -1 -56 -1h-43.5h-43.5q-38 0 -56 -1q7 -248 7 -426q0 -59 -1 -111 q17 -5 39.5 -5.5t60 0.5t50.5 1q15 -1 35 0t41 -1t26 -7q6 -6 6 -97q0 -25 -4 -26q-14 -2 -56 -1.5t-107 0.5t-91 -3q-1 -68 -7 -234t-6 -236t5 -235q10 -4 124 -4t142 -10q8 -72 8 -117q1 -8 -1.5 -13t-11 -7t-14 -2.5t-18 0t-16.5 0.5q-14 0 -63 1t-72 1q-17 0 -61 2.5 t-62 1.5q-4 0 -22 -0.5t-31.5 -1t-27.5 1.5t-18 6t-5 9.5t0 12t1 7.5q0 887 -2 1087q0 184 -2 223z" />
<glyph unicode="F" horiz-adv-x="585" d="M92 1253q-4 88 -4 159.5t4 127.5q0 2 1.5 24.5t4 36.5t6.5 19q8 10 28 15.5t42.5 6t46 0.5h39.5q58 2 100.5 2t69.5 -2q33 -3 60.5 -2t46.5 -1t20 -11q0 -4 2.5 -20t4.5 -30.5t2.5 -30.5t-3.5 -26t-12 -12q-15 -4 -55 -4q-38 -1 -94 3q-85 5 -122 6q-15 0 -22 -1 q0 -63 -2 -199q-1 -102 -1 -191v-57q0 -112 5 -218q43 -13 142 -14t114 -9q0 -2 0.5 -19.5t0 -30.5t-1 -29.5t-3 -28t-6.5 -15.5q-6 -6 -81 -6q-61 0 -167 4q-6 -81 -6 -233v-102q1 -104 2 -186q0 -99 -2 -167q0 -8 -27 -14t-61.5 -4t-50.5 14q-15 6 -17 238q-1 116 -1 239 q-1 123 1 251q2 184 2 246v30q-3 36 -3 120.5t-3 120.5z" />
<glyph unicode="G" horiz-adv-x="780" d="M113 528l14 846q3 102 51 174q52 78 174 88q17 1 33 1q100 0 176 -52q24 -14 55.5 -53.5t38.5 -65.5q6 -20 9.5 -42.5t4.5 -50.5t1.5 -49.5t-1 -56t-3 -51.5t-4 -55.5t-3.5 -50.5q-14 -18 -40 -18.5t-56.5 8t-38.5 8.5q0 19 0.5 57.5t1 62t-1.5 56t-6 59.5q-1 7 -7.5 43 t-10.5 48q-25 71 -104 71h-7q-58 0 -74 -24q-15 -22 -30 -102t-15 -109q0 -48 -1 -270q-1 -149 -1 -258v-98q1 -134 4 -159q2 -14 2 -71v-30q-1 -5 -1 -10q0 -76 8 -108q9 -62 24 -84q7 -12 41 -32.5t57 -20.5q30 0 62.5 24t42.5 48q3 6 10 65q0 32 3 96.5t3 92.5 q0 45 -3 126t-3 99q-18 8 -42.5 3.5t-46.5 -3.5t-23 16q0 10 -2 28t-3 29.5t-0.5 24.5t5 20t12.5 9q49 11 107 11q39 0 83 -5q29 -4 49.5 -0.5t41.5 2t36 -13.5q13 -10 18 -39.5t2.5 -54t-7.5 -25.5q-8 -4 -37.5 -2.5t-42.5 0.5q1 -22 4 -82t4.5 -95t3.5 -87v-61v-37 q-1 -46 -4 -87q0 -13 -6 -55q-7 -48 -74 -110q-31 -25 -82 -50t-90 -28h-9q-23 0 -61 7q-46 9 -67 19q-3 2 -19 10t-22.5 12t-21 12.5t-23 15t-20 16t-20.5 20t-16 21.5q-10 17 -26 96q-6 19 -6 135q0 10 1 20v78q0 64 -1 78z" />
<glyph unicode="H" horiz-adv-x="790" d="M98 1559q2 71 4 75l8 1q9 1 21.5 2t28 2t31 1.5t29 0t23 -2.5t11.5 -6q10 -16 10 -56v-8q0 -38 -5 -94q-5 -62 -5 -71v-11q0 -55 8 -212q1 -17 1 -41q1 -29 -1 -69q-2 -50 -2 -78v-19q0 -18 3.5 -59.5t2.5 -61.5q24 0 73 2q37 1 67 0h19q37 0 69 -4q4 55 4 135v51 q-1 49 -1 88q0 53 1 90v24q0 69 -4 235q0 6 -1.5 30.5t-2 38.5t0 35t2.5 36.5t7 26.5q19 7 56 7q13 -1 28 -1q59 -4 67 -26q7 -35 6.5 -62.5t-3.5 -79.5q-2 -32 -2 -55q0 -16 1 -28q0 -9 5 -73q4 -54 4 -87v-12q0 -23 -1.5 -67t-1.5 -66q-6 -28 -6 -196q0 -24 -1 -44 q0 -126 3 -145q7 -93 9 -219q2 -90 2 -173v-64v-115v-126q3 -5 -11 -8q-22 -5 -48.5 -5t-58.5 5q-18 3 -30 8q-6 96 -8 251.5t-4 211.5q-1 17 -1 54q1 27 1 67v40q0 60 -4 85q-25 6 -56.5 6.5t-54 -1t-62 -6t-57.5 -5.5q-7 -100 -8.5 -299.5t-3.5 -264.5q-1 -10 -0.5 -44 t-0.5 -62t-5 -35q-7 -12 -60 -12h-5q-58 0 -83 12q-3 75 -3 199q1 115 3 269q2 143 2 247q0 133 -4 203q-2 9 -2 38q0 24 2 60q2 81 2 96q0 55 -6 207q-4 86 -4 149q0 49 2 85z" />
<glyph unicode="I" horiz-adv-x="376" d="M115 1634q0 9 15.5 11t62.5 2q72 0 75 -13q4 -4 7 -36t4.5 -84.5t3.5 -79.5q2 -30 2 -179v-45q0 -110 3 -381t3 -375v-42q-2 -61 -2 -193q0 -9 0.5 -45t0.5 -62.5t-1 -56t-4 -41.5q-6 -17 -63 -17q-6 1 -10 1q-66 2 -87 14q1 17 1 60v51q0 17 -1 32q0 60 2 83q2 42 2 106 q1 88 -3 218q-5 191 -5 290v33q0 344 -4 438q-2 80 -2 311z" />
<glyph unicode="J" horiz-adv-x="522" d="M8 96q-3 9 12 35q2 3 8.5 17t14 24t16.5 12q7 2 26.5 -9.5t23.5 -12.5q50 -29 85 -29q9 0 17 2q39 7 55.5 89t16.5 169q-9 61 -9 378q0 86 1 192q2 296 2 420q0 83 -1 90q-9 91 -9 131q0 29 5 30q2 0 18 3t27.5 5t30 3.5t31.5 0t25.5 -6t17.5 -13.5q0 -181 4 -373 q0 -3 5 -396t5 -413q0 -10 1 -45t1 -45q0 -9 -1.5 -48.5t-3 -54.5t-4.5 -44t-8 -49.5t-13 -38.5q-4 -10 -18 -28.5t-17 -27.5q-65 -65 -156 -65q-32 0 -67 8q-38 7 -84.5 33.5t-57.5 56.5z" />
<glyph unicode="K" horiz-adv-x="792" d="M119 326q1 41 1 197v314t-0.5 310t-0.5 160q0 67 2 104q3 29 3 76q0 16 1 32q0 33 -1 69l-1 54q0 8 34 16q23 5 48 6q13 0 25 -2q38 -4 49 -20q5 -118 5 -194v-24q-1 -80 -6 -244t-6 -242h6q34 0 58 10q26 12 59 37q41 31 47 39q48 66 82 238q4 28 7 81t6 74q4 36 4 85 q0 33 -2 71q1 11 -0.5 35t2 35.5t16.5 11.5q49 0 59 2q7 1 26.5 0t38.5 -2.5t21 -1.5q3 -64 3 -170q-1 -10 -2 -52.5t-3 -64.5q-6 -122 -41 -244t-88 -190q-11 -14 -44 -38t-40 -36q2 -3 15.5 -17t25 -27.5t21.5 -29.5q7 -10 13 -22t10 -21t8.5 -24.5t6.5 -23t6.5 -26.5 t6.5 -26q28 -96 39 -147q3 -16 31 -141t39 -187q17 -78 30 -164q-25 -9 -77 -9h-11q-60 1 -65 9q-12 24 -29 119q-3 16 -14 56t-13 61q-15 102 -49 237q-7 26 -21 72t-18 61q-2 7 -7 25.5t-8 29t-7.5 25t-9.5 25.5t-11 20q-24 29 -49 42t-65 16q-2 -34 -2.5 -103.5 t2.5 -175.5q1 -53 1 -109q0 -180 -12 -399q-11 -6 -64 -6h-9q-61 0 -76 8q-6 254 -6 308v12z" />
<glyph unicode="L" horiz-adv-x="604" d="M86.5 29q-1.5 18 2 51.5t3.5 54.5q-1 143 -1 274q0 306 5 549v50q0 68 -2 168q-2 116 -2 216v40q0 117 10 202q6 7 17.5 10.5t20.5 3.5t25.5 -0.5t20.5 -0.5h22t20.5 -0.5t16.5 -5.5t9 -15q3 -34 3 -71t-2.5 -101.5t-2.5 -81.5q8 -304 12 -811v-23q0 -72 -5 -195.5 t-5 -193.5v-22q31 -10 134 -10q48 0 111 2q23 1 38 1q30 0 30 -3q15 -7 15 -113q-19 -21 -134 -25q-31 -1 -58 -1q-77 0 -132 8q-25 3 -56 1t-63 0.5t-41 12.5q-10 11 -11.5 29z" />
<glyph unicode="M" horiz-adv-x="1064" d="M100.5 1622q-0.5 6 5.5 12q18 9 61 9q23 -1 55 -3q88 -8 97 -28q24 -75 43 -168t38.5 -207t31.5 -174q29 -136 107 -707q28 168 76.5 491t82 553t35.5 230q31 6 91 6h40q90 -2 103 -16q7 -26 9 -79q1 -26 1 -51q-1 -26 -1 -49q-1 -20 0 -40q0 -27 1 -53q3 -99 3 -178v-26 q0 -90 -2.5 -206t-2.5 -131q0 -515 -8 -692q-1 -15 4 -58.5t0 -50.5q-5 -14 -77 -14q-2 0 -5 -1q-68 0 -76 15q-4 10 -7 50q-2 24 -2 44q0 13 1 23q9 194 9 444.5t-9 556.5q-12 -96 -96 -539.5t-115 -576.5q-2 -8 -7 -9.5t-18.5 0.5t-23.5 1q-8 0 -22.5 -1.5t-22.5 -2 t-17.5 0t-14.5 4.5t-7 11q-57 253 -84 447q-58 451 -111 663q-1 -40 -1 -107q-1 -84 1 -210q1 -103 2 -176q0 -88 -2 -133q5 -40 6 -262v-53q0 -171 -6 -179q-15 -12 -75 -12h-3q-57 0 -75 18q-5 27 -5 66q0 17 1 37q3 66 3 221v54q0 22 -1 43q0 164 4 235q1 12 1 39 q0 74 -6 261q-5 171 -5 248q0 38 1 52q3 29 3 73q-1 40 -3 91q-3 57 -2 96q0 36 2 57q1 8 -2 21.5t-3.5 19.5z" />
<glyph unicode="N" horiz-adv-x="833" d="M61 1266q0 44 9 186q1 18 1 45v30q-1 48 -2 74.5t1 38.5q4 8 58 8q6 0 12 1q45 0 69 -4q50 -5 52 -9l1 -4q4 -15 29.5 -83.5t25.5 -69.5q7 -28 26 -80.5t22 -61.5q55 -191 140 -534t99 -443v17q0 73 5 387q4 244 4 346q0 51 -1 66q-3 7 -3 56q0 25 1 61q2 107 2 132v62.5 t-0.5 64.5t-1 55.5t-0.5 41v16.5q30 4 58 4q79 0 80 -2q6 -13 8.5 -53.5t3 -114t0.5 -88.5q-1 3 -1.5 -118.5t-1.5 -300.5t-2 -361t-3 -321t-4 -160q0 -1 1 -25.5t2 -50.5t1 -49.5t-2 -26.5q-5 -6 -37 -7h-26q-19 1 -39 1q-33 2 -36 0q-35 -1 -53 25t-33 85 q-10 40 -31.5 105.5t-31.5 105.5q-3 14 -13.5 47t-13.5 50q-80 320 -221 917q6 -162 6.5 -490.5t1.5 -385.5v-22q0 -60 -7 -212q-9 -185 -15 -215q-2 -8 -62 -8q-4 0 -8 -1q-52 0 -55 7q-13 37 -13 141q7 147 7 361v69q0 123 -4.5 317t-4.5 312v66z" />
<glyph unicode="O" d="M96 488q0 60 6 187t7 148q4 361 18 484q17 161 55 237q52 100 166 105h11q63 0 125 -30q68 -33 102 -81q56 -79 67 -244q5 -67 5 -183v-61q0 -54 -1 -99q0 -91 2 -150q0 -223 -20 -448.5t-66 -293.5q-39 -57 -117 -69q-27 -4 -52 -4q-52 0 -104 16q-78 24 -128 70 q-13 12 -29 45.5t-20 50.5q-15 65 -21 162q-5 89 -6 147v11zM245 334q2 -68 13 -103q12 -45 39 -69q17 -14 65 -28q27 -7 45 -8q14 0 23 5q22 12 43 111q24 92 24 366q0 64 -1 137q-2 217 -11 502q-4 160 -34 213q-11 21 -31.5 40t-38.5 16q-13 -1 -32.5 -21t-26.5 -35 q-39 -92 -43 -305q-1 -65 -11 -273.5t-10 -246.5q0 -1 -4 -57t-8 -116q-2 -38 -2 -80q0 -23 1 -48z" />
<glyph unicode="P" horiz-adv-x="708" d="M56 1231q0 73 1 171t4 173q0 37 15 59q87 17 163 17q85 0 156 -21q96 -28 155 -84t83 -155q13 -55 13 -157q0 -11 1 -23q0 -87 -4 -144q-5 -42 -8 -109.5t-8 -118.5t-19 -89q-16 -49 -56.5 -81.5t-92 -44t-112.5 -13.5h-17q-52 0 -101 10q-6 -13 -6 -90q0 -29 1 -67 q2 -83 2 -136q0 -35 -1 -56q-2 -20 -3 -71.5t-3 -75.5q-6 -104 -14 -121q-4 -9 -34 -15q-14 -3 -30 -3q-17 0 -35 4q-36 6 -49 30q2 119 2 258.5t-1 316t-1 275.5q0 56 -0.5 172t-0.5 189zM216 1410q0 -8 -1 -19q0 -21 1 -53q1 -46 1 -64q0 -34 -0.5 -120.5t-0.5 -135.5 t1.5 -121.5t5.5 -130.5q54 -16 99 -15q55 0 94 23q53 30 63 125q6 61 7.5 185.5t2.5 146.5v30q0 110 -26 166q-24 50 -96 79q-52 21 -101 21q-19 0 -37 -3q-7 -22 -10 -55.5t-3 -58.5z" />
<glyph unicode="Q" horiz-adv-x="770" d="M88 907q-2 50 -2 112q0 87 4 198q2 60 4.5 93.5t9 85.5t20.5 87t36 57q3 3 22 24.5t35 36.5t29 19q11 4 25 6t34 3t25 1q16 1 32 1q64 0 124 -19q74 -24 106 -76q35 -56 52 -154t17.5 -200.5t0.5 -215v-196.5v-27q0 -37 -1.5 -94t-1.5 -93v-26q1 -42 1 -69v-24 q-1 -30 -3.5 -89t-3.5 -88q0 -63 -34 -145.5t-76 -110.5q-16 -10 -55.5 -14t-53.5 -13q0 -127 -14 -141q-5 -9 -49.5 -6.5t-67.5 18.5q-8 20 -8 134q-17 0 -42.5 8t-56 24.5t-54.5 49.5t-31 75q-10 67 -10 137q0 17 1 35v22q0 51 -3 145q-4 118 -5 159q0 7 -2 111t-4 159z M238 355q0 -13 0.5 -40t2.5 -43.5t5 -40t8.5 -38t12.5 -29t17 -22t23 -9.5q0 125 4 127q12 6 58.5 5.5t54.5 -5.5q3 -6 0 -52q-2 -22 -2 -41q0 -22 2 -40q11 4 21 11.5t17 16.5t13 22.5t9.5 24.5t7 28.5t5 28t2.5 29.5t1.5 26.5t1 24.5t0.5 19q11 160 12 425t2 315 q0 41 -8 127.5t-16 134.5q-4 25 -7 38.5t-9.5 35t-13.5 33t-19 24.5t-27 17.5t-37 5t-49 -6.5q-23 -6 -38.5 -21t-24 -31.5t-14 -48t-6.5 -53t-3 -63.5q-6 -111 -6 -213q0 -20 0.5 -57t0.5 -67t-1 -56q0 -41 1 -125.5t1 -124.5q0 -38 -1 -111t-1 -110v-32v-39z" />
<glyph unicode="R" d="M113 -4q0 173 4.5 512.5t5.5 460.5q0 45 -1 144t-1 147q1 9 1 173t3 183q4 19 24.5 24.5t59.5 2.5t47 -3h11q186 0 306 -96q135 -113 135 -360q0 -34 -3 -70q-7 -107 -22 -174t-52 -117q-60 -77 -115 -106q82 -169 126 -342q35 -141 36 -299q0 -36 -2 -74q-7 -8 -37 -16 q-26 -7 -57 -7q-6 1 -12 1q-38 2 -56 22q0 421 -180 692q-13 1 -25 1.5t-21 1t-24 1.5q-2 -34 -2 -107q0 -63 2 -156q1 -56 0 -103q0 -120 -6 -182q-1 -13 -1 -73.5t-7 -80.5q-2 -7 -27.5 -16t-58.5 -7t-51 23zM270 836q44 -7 89 -7h11q51 1 62 7q48 25 68.5 73.5 t27.5 126.5q1 15 7.5 72.5t6.5 75.5q0 4 1 8q0 20 -2 63q-15 123 -81 193q-52 55 -133 55q-22 0 -46 -4q1 -51 1 -104t-1 -109q-2 -111 -6 -250.5t-5 -199.5z" />
<glyph unicode="S" horiz-adv-x="761" d="M60 336q2 81 22 137q3 10 6.5 30.5t8 32.5t12.5 15q21 9 46 9q17 0 33 -4q44 -9 58 -34l-8 -60t-8 -72q-2 -19 -2 -44v-21q1 -38 10 -67q21 -79 71 -115q23 -16 46 -16q27 1 55 25q50 44 67 112q5 20 5 45q0 45 -15 109q-2 10 -6 38.5t-8 41.5q-8 25 -19.5 48t-29 49 t-28 41t-35 46t-32.5 41q-19 21 -93 141.5t-87 149.5q-3 6 -17.5 32t-19.5 41q-19 72 -19 145q-1 40 5 81q16 114 80 200q50 64 96 84q87 37 156 37h10q83 -5 161 -65.5t99 -141.5q5 -17 7.5 -37.5t4.5 -52.5l4 -43q0 -23 -10 -120q0 -3 -1 -24t-2.5 -41.5t-4.5 -43 t-9 -38.5t-14 -19q-5 -1 -37.5 -4t-35.5 -3q-59 9 -64 19q-2 8 -4 48v25q0 23 2 40q8 41 8 106q0 20 -1 42q-3 95 -25 142q-6 14 -10 21t-12.5 17t-20.5 16t-29 8q-13 0 -44 -8t-44 -15q-62 -28 -84 -136q-10 -49 -10 -94q0 -54 14 -102q17 -56 66 -141q59 -99 155 -221 q67 -84 106.5 -156t59.5 -166q10 -49 11 -100q0 -56 -14 -116q-24 -112 -85 -171q-42 -40 -120 -56q-34 -7 -70 -7q-47 0 -97 12q-69 20 -109.5 65t-78.5 126q-22 53 -22 127v10z" />
<glyph unicode="T" horiz-adv-x="634" d="M44 1579v31q0 35 3 37q6 1 119 5q43 2 100 1q87 0 207 -4q18 -2 56.5 -2.5t63.5 -1t25 -3.5q0 -1 0.5 -17t0.5 -31t-0.5 -33t-3.5 -30t-7 -15q-9 -7 -22 -8t-33.5 1.5t-34.5 1.5q-8 0 -52 -3.5t-52 1.5q-4 -86 -4 -170.5t4 -167.5q2 -43 2 -110v-73q-1 -51 -1 -93 q0 -56 1 -96q2 -135 2 -158q0 -4 1 -11q-1 -34 -3 -142q-2 -130 -2 -148q-5 -206 -6 -213q0 -126 -17 -143q-2 -2 -31 -4q-16 -1 -34 -2q-14 0 -30 1q-35 2 -48 11q-12 34 -12 103q0 40 4 91q3 24 3 64q-1 34 -3 82q-3 70 -3 114q0 19 1 33q4 70 4 145q0 19 1 39 q1 61 -1 137q-2 100 -2 148q0 366 -2 561q-14 2 -33 2.5t-37 0t-36.5 -2t-34 -2.5t-28 -1.5t-19 1.5t-5.5 6v12q0 16 -1 56z" />
<glyph unicode="U" horiz-adv-x="780" d="M113 672q2 42 1 108q0 64 -1 154q-1 54 -1 99q0 105 5 163q1 16 3 76.5t3 77.5q1 14 1 58q0 9 -1 17q0 32 2 48q2 17 3 59.5t2.5 73t4.5 32.5q5 4 35 8q18 3 39 2q14 0 29 -1q37 -3 49 -19q-13 -496 -13 -741q0 -47 -2 -171q-2 -103 -3 -166q1 -14 1 -24q0 -66 10.5 -160 t32.5 -165q20 -64 70 -70q20 -1 48.5 12t37.5 27q4 6 7.5 15t6 16.5t4.5 20.5t3.5 21t3 23.5t1.5 22t1.5 24.5t1.5 23q4 108 8 288.5t6 254.5q2 91 2 548v20q0 23 -1 58q-2 42 -2 72q1 7 1 15q0 34 4 36q23 12 63 14q7 0 13 1q32 -1 58 -7q30 -8 30 -16q0 -14 3 -96.5 t3 -100.5q-2 -62 -2 -160.5t2 -232.5q0 -44 -3 -131.5t-3 -130.5q0 -182 -4 -262q-6 -192 -23 -299q-8 -44 -18.5 -71.5t-32.5 -55.5q-58 -68 -192 -96q-8 -1 -18 -1q-40 0 -96 28q-69 35 -99 69q-33 40 -47 72q-18 46 -25 127q-13 117 -13 298q0 46 1 95z" />
<glyph unicode="V" horiz-adv-x="743" d="M45 1636q52 13 86 13q47 0 59 -25q4 -8 9 -44t10 -77.5t6 -48.5q69 -400 133 -932q15 71 33.5 223t30.5 209q1 8 18 119.5t34 218t36 213t28 133.5q36 13 83 13q5 -1 10 -1q53 -2 61 -14q4 -2 0.5 -56t-10.5 -83q-32 -214 -49 -307q-18 -115 -61 -365t-62 -376 q-4 -10 -21.5 -120t-34 -214.5t-18.5 -106.5q-16 -9 -70 -11h-13q-45 0 -69 13q-121 526 -198 1250q-3 32 -11 92.5t-12 96.5q-5 36 -7 88q-2 37 -1 72v27z" />
<glyph unicode="W" horiz-adv-x="1155" d="M39 1640q55 8 91 8q40 0 56 -10q2 0 7.5 -35.5t12 -81.5t9.5 -61q11 -96 37.5 -275t36.5 -222q18 -70 34.5 -221.5t22.5 -188.5q16 72 43.5 237.5t42.5 235.5q15 71 32 182.5t28 167.5q4 20 11.5 80t17 104.5t24.5 69.5q32 6 60 6h21q38 -4 52 -18q10 -66 25.5 -208.5 t19.5 -170.5q18 -131 39.5 -371.5t30.5 -314.5q10 41 22 129.5t16 110.5q38 236 43 266q14 79 47.5 254.5t49.5 267.5q2 6 5 23t7 29t10 14q23 5 60 5h28q57 -2 62 -12q2 -5 2 -17q0 -40 -29 -153q-8 -40 -22.5 -141t-24.5 -147q-31 -136 -76 -407.5t-63 -362.5 q-38 -215 -49 -285q-22 -127 -27 -129q-4 -2 -21.5 -2t-48.5 2q-10 1 -24 0t-26.5 0.5t-14.5 5.5q-1 5 -35 219q-4 32 -17.5 94.5t-17.5 88.5q-3 16 -24 123t-27 165q-4 33 -7.5 129t-8.5 133q-1 -6 -16.5 -88t-18.5 -110q-13 -67 -86 -482q-3 -19 -15 -65.5t-16 -75.5 q-2 -9 -6 -37t-6.5 -44t-10 -34t-16.5 -24q-15 -7 -54.5 -5.5t-53.5 5.5q-12 4 -18.5 14.5t-8 21t-3.5 30t-5 32.5l-133 920q-4 35 -35.5 269.5t-40.5 356.5z" />
<glyph unicode="X" horiz-adv-x="731" d="M8 -4q59 148 77 200t77 236q10 32 59 204.5t49 176.5q0 1 -4 18t-9.5 41t-8.5 39q-29 144 -82 289q-11 31 -29.5 96.5t-27.5 92.5q-11 37 -37 137q-22 86 -22 98q0 2 1 2q10 4 77 6h22q47 0 55 -6q4 -4 22 -64.5t27 -95.5q17 -67 63 -205.5t54 -166.5q25 51 71.5 187.5 t63.5 178.5q4 13 11.5 45t14.5 49q25 70 29 74q2 2 45 2h33q78 -1 78 -4q0 -4 -45 -156q-17 -68 -39 -122q-8 -23 -29.5 -81t-32.5 -91q-5 -25 -35.5 -115t-58.5 -167l-28 -77q0 -1 7 -26.5t17 -60t14 -52.5q79 -338 189 -684q-1 -3 -19 -3t-35 1t-24 0q-84 0 -86 4 q-24 72 -78.5 265t-77.5 265q-22 -55 -68 -197.5t-63 -189.5q-52 -138 -57 -143q-3 -2 -78 -4q-15 0 -27 -1q-49 0 -55 5z" />
<glyph unicode="Y" horiz-adv-x="692" d="M71 1632h11q72 -1 76 -8q8 -13 22 -72t19 -73q24 -82 46 -175.5t48.5 -212.5t42.5 -184q1 0 12 33.5t25.5 80t21.5 75.5q13 52 49.5 216t42.5 199q7 8 20 60.5t17 60.5q43 10 93 10h5q53 -1 60 -8q-4 -18 -21.5 -95t-23.5 -112q-2 -19 -12.5 -53t-16.5 -59 q-20 -62 -46 -188t-38 -160q-8 -23 -30 -100t-42.5 -135.5t-39.5 -94.5q-6 -80 -6 -199v-20q1 -43 1 -77q0 -68 -1 -95q0 -28 3.5 -78.5t3.5 -90t-7 -73.5q-4 -9 -46 -11q-15 -1 -29 -1q-26 0 -51 2q-40 4 -40 8q0 11 -1 64.5t-1 72.5q-8 127 -8 220q0 38 1 71q1 24 1 62 t-1 89v56q-24 162 -38 211q-8 30 -113 463q-13 61 -39 153q-35 145 -35 160q0 8 65 8z" />
<glyph unicode="Z" horiz-adv-x="708" d="M61 6q-5 47 -5 80q0 40 7 61q12 30 30 92.5t28 90.5q10 23 50 143t50 154q18 53 56.5 155.5t56.5 153.5q17 50 43 145.5t31 114.5q5 17 24 68.5t23 74.5q24 104 32 127q-25 7 -85 7q-62 0 -132 -2q-47 -1 -75 -1h-23q-30 2 -38 22q-7 20 -2 54q2 15 2 33q0 21 -3 45 q5 3 10 7q6 5 42 5h26q34 0 75 -1t93 -2.5t82 -2.5h43h40h32h50q42 -2 66 -6q2 -32 2 -58q0 -48 -8 -73q-15 -34 -33.5 -90t-40.5 -129.5t-28 -91.5q-11 -35 -26 -98t-21 -83q-16 -54 -35 -109.5t-44 -122.5t-38 -103q-54 -149 -174 -506q23 -8 93 -8q31 0 72 2 q66 2 108.5 2t62.5 -2q8 -12 8.5 -24.5t-1.5 -29.5t-1 -30v-6q1 -7 1.5 -15.5l1 -17t0 -16t-2.5 -9.5q-7 -15 -29 -18t-61.5 1t-57.5 3h-26q-48 0 -146 -2q-49 -1 -84 -1q-58 0 -78 3q-14 1 -22.5 0.5t-13 -0.5t-6 2.5t-1.5 11.5z" />
<glyph unicode="[" horiz-adv-x="354" d="M10 565q5 80 6 172.5t-0.5 218t-1.5 168.5v609q0 10 76 7.5t148 -8t100 2.5q4 0 4.5 -2t-0.5 -11q-3 -21 -4 -42t0 -89q-10 -1 -57.5 -1.5t-90.5 -2.5q3 -79 -0.5 -250t0.5 -250q7 -136 -0.5 -408t-1.5 -403q1 -27 0 -109.5t0 -107.5q14 -1 52.5 -1.5t66.5 -2.5t31 -6 q6 -11 5 -69.5t-7 -75.5q-7 -8 -138 -7.5t-175 7.5q-10 1 -10.5 15.5t2.5 41.5t1 43q3 155 -6 561z" />
<glyph unicode="\" horiz-adv-x="475" d="M49 1712q4 4 31 5t39 -1q1 -1 26.5 -161.5t52.5 -336.5t31 -210q20 -171 91.5 -571.5t105.5 -497.5q-15 -4 -34.5 -4t-31.5 2l-12 2q-28 113 -86.5 433t-62.5 363q-7 87 -45 331t-72 445z" />
<glyph unicode="]" horiz-adv-x="526" d="M104 -20.5q-1 58.5 5 69.5q3 4 30.5 6t66 2.5t52.5 1.5q1 25 0 107.5t0 109.5q6 131 -1.5 403t-0.5 408q4 79 0.5 250t-0.5 250q-43 2 -90 2.5t-57 1.5q1 67 0 88.5t-4 42.5q-2 13 4 13q13 -5 47 -4t81.5 3t91 5t73.5 1.5t30 -7.5v-609q0 -43 -1.5 -168.5t-0.5 -218 t6 -172.5q-9 -406 -6 -561q-2 -17 1 -43t3 -41t-10 -16q-44 -7 -175 -7.5t-138 7.5q-6 17 -7 75.5z" />
<glyph unicode="^" horiz-adv-x="536" d="M61 1214q15 26 82.5 99.5t122.5 99.5q8 4 42.5 -25t58.5 -53q23 -21 58 -63.5t54 -61.5q8 -8 -7.5 -20t-20.5 -12q-3 0 -33.5 21t-71 51.5t-63.5 52.5q-7 7 -14 7t-15 -5.5t-15 -12t-18 -17.5t-20 -18q-96 -75 -109 -75q-4 0 -19.5 13t-11.5 19z" />
<glyph unicode="_" horiz-adv-x="790" d="M99 17q1 21 3 41t4.5 34.5t2.5 13.5q149 10 329 3q18 -1 84.5 0.5t108.5 2t57 -2.5q6 -2 4.5 -21.5t-0.5 -24.5q-1 -19 2.5 -42t2 -31.5t-12.5 -12.5q-12 -4 -57.5 -4.5t-102.5 1.5l-57 1q-268 0 -354 -6q-8 -1 -11.5 13t-2.5 35z" />
<glyph unicode="`" horiz-adv-x="210" d="M-2 2003q-6 6 25 8q59 5 139 -4q6 -1 10 -17.5t7 -43.5t5 -35q10 -16 20 -69.5t23 -78.5q6 -14 -86 -6q-2 0 -11 17t-25 47.5t-31 52.5q-11 17 -27.5 47t-29.5 53t-19 29z" />
<glyph unicode="a" horiz-adv-x="770" d="M49 14q0 45 35 318q1 12 2.5 33t3.5 38t6 33q18 191 35 322q10 72 39 207.5t39 199.5q30 186 63 310q9 33 28.5 83t29.5 82q27 15 68 15h14q50 -3 69 -21q6 -5 9 -13t6.5 -23t7.5 -27q28 -88 63 -285q62 -372 86 -643v-8q1 -2 40 -1t40 -1q2 -3 2.5 -23.5t0 -43t-1.5 -44 t-1 -22.5q0 -6 -34.5 -4.5t-34.5 0.5q0 -5 5 -52.5t12.5 -114t10.5 -96.5q2 -20 11.5 -73.5t14.5 -96.5t1 -59q-7 -12 -53 -15q-9 -1 -18 -1q-36 0 -66 10q-22 39 -33 125q-3 22 -16.5 110t-21 149t-11.5 116q-151 8 -221 8h-25q-17 -71 -23 -154q-3 -22 -14.5 -77.5 t-15.5 -84.5q-3 -18 -7 -63t-8.5 -78t-9.5 -41q-7 -11 -56.5 -9t-70.5 15zM272 637q48 -4 132 -5h47q38 0 41 1q-7 54 -19 170t-20.5 188t-24.5 169t-35 171q-14 -57 -22 -112q-4 -30 -17.5 -88t-15.5 -70q-6 -37 -24.5 -126.5t-29 -159.5t-12.5 -138z" />
<glyph unicode="b" horiz-adv-x="755" d="M51 741q-3 64 -3 98.5t3 39.5l58 2q-1 108 -2.5 223.5t-3 185.5t-1.5 82q0 22 -1 81q-1 39 -1 71v30q0 42 4 78q1 19 86 19q47 0 119 -6q71 -6 149 -38t113 -73q69 -76 91 -212q11 -72 10 -152q0 -70 -8 -146q-1 -5 -5 -30t-6 -33.5t-7 -30.5t-9 -32t-12 -27t-17 -26.5 t-21.5 -19t-27.5 -14.5q88 -29 112 -135q0 -2 0.5 -3.5t0.5 -2.5q23 -79 23 -170q0 -153 -64 -342q-19 -55 -101 -129q-23 -20 -81.5 -29t-108.5 -9t-116 2.5t-70 2.5q-37 0 -41 4l-4 741q-48 -4 -58 0zM256 1513q0 -117 7 -328.5t7 -303.5q44 -12 100 -12h24q70 3 89 18 q42 33 51 143q2 30 2 62q0 81 -16 167q-24 119 -67 183q-17 25 -33 35q-55 39 -162 45q-3 -1 -2 -9zM258 133q41 -13 82 -15q7 0 13 -1q33 0 65 11q38 13 53 44l12 24l17 34t14.5 33.5t9.5 33.5q8 40 12 64.5t10 65.5t7 68.5t1.5 63t-6.5 60t-17 49t-28.5 40.5t-43.5 25 q-15 5 -44.5 7t-53.5 2t-55.5 -0.5t-35.5 -0.5q-2 0 -4 -4l-2 -4v-31v-60q-2 -58 -2 -73v-184t-4 -252z" />
<glyph unicode="c" horiz-adv-x="720" d="M94 697q4 135 11 317q6 159 6 201v10q0 13 -1 37.5t-1 46t2 41.5q13 154 84 225q70 70 153 72h6q52 0 107 -16q58 -17 96 -44q63 -43 85 -125q21 -76 20 -190v-21q0 -116 -17 -147q-5 -10 -52 -10h-13q-60 2 -60 16q0 84 -4 174q-3 49 -24 137q-17 61 -39 78 q-15 12 -45 18.5t-43 4.5q-37 -4 -65.5 -53t-33.5 -101q-10 -135 -10 -205q-3 -91 -3 -149q0 -19 -1 -41q0 -42 1 -91q1 -74 1 -126q0 -22 -1 -86v-54v-32q1 -22 6 -64.5t18 -71.5t34 -57q25 -30 47 -33q8 -2 17 -2q25 0 53 12q38 16 57 42q16 22 18.5 121t2.5 100 q7 15 62 19q10 1 18 1q42 0 67 -16q-1 -29 -1.5 -86.5t-2 -86.5t-12 -67t-29.5 -65q-32 -45 -99 -77.5t-143 -36.5h-10q-69 0 -127 42q-31 24 -55 55q-59 72 -74 160q-6 63 -6 152q-1 34 0 72zM137 112.5q2 8.5 13 12.5q12 5 50 5h20q30 0 66 -2q48 -2 50 -1q178 0 264 6 q8 1 11.5 -13t2.5 -35t-3 -41t-4.5 -34.5t-2.5 -13.5q-62 -4 -133 -4q-51 0 -106 2h-21h-56q-58 -2 -94 -2.5t-49 2.5q-6 2 -4.5 21t0.5 24q1 19 -2.5 42t-1.5 31.5z" />
<glyph unicode="d" d="M86 1331q-5 74 -5 136q0 101 13 173q6 6 30.5 5.5t29.5 -0.5q41 2 59.5 1t56.5 -6t54 -6q152 -15 251 -90q34 -26 55.5 -85t27.5 -133q8 -74 10 -160q1 -43 0.5 -84.5t-0.5 -82.5q-1 -37 -2 -72q0 -42 2 -83q1 -34 1 -61t-1 -46q-1 -29 -1 -125.5t-7 -155.5t-27 -102 q-19 -42 -98 -98q-13 -9 -28 -15t-24.5 -8t-31.5 -6l-33 -6q-25 -5 -94 -5q-34 0 -80 2q-136 4 -146 7q-6 3 -2 25q-4 159 -4 250v80v56q0 15 1 40q0 50 -1 141q0 448 -6 514zM120.5 112.5q1.5 8.5 12.5 12.5q12 5 54 5h22q34 0 73 -2q53 -2 54 -1q188 0 274 6q8 1 11.5 -13 t2.5 -35t-3 -41t-4.5 -34.5t-2.5 -13.5q-63 -5 -136 -5q-54 0 -113 3h-22h-59q-62 -2 -101.5 -2.5t-53.5 2.5q-6 2 -4.5 21t0.5 24q1 19 -2.5 42t-2 31.5zM240 1491q8 -349 8 -682q0 -230 -4 -453q23 -9 62 -10q28 0 64 6q87 12 113 45q25 35 29 158q10 165 10 264 q0 62 -1 92q-1 13 2 62q2 26 3 45v23v45q-2 42 -2 47q0 272 -82 335q-15 12 -42 20.5t-48.5 11t-59 6t-50.5 5.5q-2 -1 -2 -4t0.5 -7t-0.5 -9z" />
<glyph unicode="e" horiz-adv-x="602" d="M96 1333q0 12 1 35t1 41.5t-2 34.5v63q-3 27 -3 53q0 39 7 76q46 8 84 10.5t87.5 3t76.5 1.5q25 1 47 1q114 0 137 -18q-2 -7 0.5 -35t3.5 -47.5t-8 -29.5q-6 -4 -21.5 -4.5t-30 0.5t-27.5 0q-18 -1 -56 -1h-43.5h-43.5q-38 0 -56 -1q7 -248 7 -426q0 -59 -1 -111 q17 -5 39.5 -5.5t60 0.5t50.5 1q15 -1 35 0t41 -1t26 -7q6 -6 6 -97q0 -25 -4 -26q-14 -2 -56 -1.5t-107 0.5t-91 -3q-1 -85 -6 -173q-6 -87 -7 -123v-13q0 -43 5 -162q10 -4 128 -4.5t146 -10.5q1 -8 1 -32t-0.5 -52t-0.5 -32q1 -6 -0.5 -10.5t-5.5 -7t-8 -4t-10.5 -1.5 t-11.5 -0.5t-13 0t-12 0.5q-14 0 -63 1t-72 1q-17 0 -61 2.5t-62 1.5q-4 0 -22 -0.5t-31.5 -1t-27.5 1.5t-18 6t-5 9.5t0 12t1 7.5q0 654 -2 854q0 184 -2 223zM126.5 112.5q1.5 8.5 12.5 12.5q12 4 29 4.5t39 -1t29 -0.5q16 0 110.5 2.5t142.5 2.5q2 0 3 -14t0.5 -35 t-1 -40.5t-1.5 -34t-1 -13.5q-60 -4 -126 -4q-48 0 -99 2q-19 1 -53 -0.5t-50 -2t-26 2.5q-6 2 -4.5 21t0.5 24q1 19 -2.5 42t-2 31.5z" />
<glyph unicode="f" horiz-adv-x="585" d="M92 1253q-4 88 -4 159.5t4 127.5q0 2 1.5 24.5t4 36.5t6.5 19q8 10 28 15.5t42.5 6t46 0.5h39.5q58 2 100.5 2t69.5 -2q33 -3 60.5 -2t46.5 -1t20 -11q0 -4 2.5 -20t4.5 -30.5t2.5 -30.5t-3.5 -26t-12 -12q-15 -4 -55 -4q-36 0 -94 3q-84 6 -122 6q-15 0 -22 -1 q0 -63 -2 -199q-1 -103 -1 -191q0 -30 1 -57q0 -112 4 -218q43 -13 142 -14t114 -9q0 -2 0.5 -19.5t0 -30.5t-1 -29.5t-3 -28t-6.5 -15.5q-6 -6 -81 -6q-61 0 -167 4q-6 -81 -6 -233v-102q2 -104 2 -186q0 -99 -2 -167q0 -8 -27 -14t-61.5 -4t-50.5 14q-14 6 -17 238 q-1 117 -1 239.5t1 250.5q2 184 2 246v30q-3 36 -3 120.5t-3 120.5z" />
<glyph unicode="g" horiz-adv-x="780" d="M113 756l14 605v13q3 102 51 174q52 78 174 88q17 1 33 1q100 0 176 -52q24 -14 55.5 -53.5t38.5 -65.5q8 -28 12 -56q4 -26 4 -58q0 -4 -1 -8q0 -38 -1 -59t-5 -71.5t-5 -66.5q-14 -18 -40 -18.5t-56.5 8t-38.5 8.5q0 21 0.5 52t1 48.5t-1.5 44t-6 53.5q-1 7 -7.5 43 t-10.5 48q-25 71 -104 71h-7q-58 0 -74 -24q-15 -22 -30 -102t-15 -109q0 -63 -1 -217q-1 -103 -1 -173v-62q1 -80 4 -105q2 -14 2 -71v-30q-1 -5 -1 -10q0 -76 8 -108q9 -62 24 -84q7 -13 41 -33.5t57 -20.5q30 0 62.5 24t42.5 48q4 8 5.5 20t3 27.5t1.5 18.5q1 62 1 109 t-1 81q-18 8 -42.5 3.5t-46.5 -3.5t-23 16q0 10 -2 28t-3 29.5t-0.5 24.5t5 20t12.5 9q49 11 107 11q39 0 83 -5q29 -4 49.5 -0.5t41.5 2t36 -13.5q13 -10 18 -39.5t2.5 -54t-7.5 -25.5q-8 -4 -37.5 -2.5t-42.5 0.5q2 -51 7 -86t5 -46t-4 -93q0 -14 -6 -56q-7 -48 -74 -110 q-31 -25 -82 -50t-90 -28h-9q-22 0 -60 7q-46 10 -68 20q-3 2 -22 12t-26.5 14t-24.5 14.5t-27 19t-22 21t-20 25.5q-10 17 -26 96q-6 19 -6 136q0 10 1 20v77q0 65 -1 79zM153.5 112.5q1.5 8.5 12.5 12.5q12 4 46 5h18q27 0 60 -2q43 -1 46 -1q211 0 297 6q8 1 11.5 -13 t2.5 -35t-3 -41t-4.5 -34.5t-2.5 -13.5q-68 -5 -147 -5q-59 0 -125 3h-20h-52q-54 -2 -86 -2.5t-45 2.5q-6 2 -4.5 21t0.5 24q1 19 -2.5 42t-2 31.5z" />
<glyph unicode="h" horiz-adv-x="790" d="M98 1559q2 71 4 75l8 1q9 1 21.5 2t28 2t31 1.5t29 0t23 -2.5t11.5 -6q10 -16 10 -56v-8q0 -38 -5 -94q-5 -62 -5 -71v-11q0 -55 8 -212q1 -17 1 -41q1 -29 -1 -69q-2 -50 -2 -78v-19q0 -18 3.5 -59.5t2.5 -61.5q24 0 73 2q37 1 67 1q10 -1 19 -1q37 0 69 -4q4 55 4 135 v51q-1 49 -1 88q0 53 1 90v24q0 69 -4 235q0 6 -1.5 30.5t-2 38.5t0 35t2.5 36.5t7 26.5q19 7 56 7q13 -1 28 -1q59 -4 67 -26q7 -35 6 -62.5t-3 -79.5q-2 -32 -2 -55q0 -16 1 -28q0 -9 5 -73q4 -54 4 -87v-12q0 -23 -3.5 -185t-3.5 -184q0 -5 39 -1t39 -1q0 -4 2 -67t2 -66 q0 -5 -41 -3l-41 3q0 -112 5 -358.5t6 -352.5q3 -5 -11 -8q-22 -5 -48.5 -5t-58.5 5q-18 3 -30 8q-6 96 -8 251.5t-4 211.5q-1 17 -1 54q1 27 1 67v40q0 60 -4 85q-28 1 -56 1q-85 0 -174 -7q-7 -100 -8.5 -299.5t-3.5 -264.5q-1 -10 -0.5 -44t-0.5 -62t-5 -35 q-7 -12 -60 -12h-5q-58 0 -83 12q-3 75 -3 199q1 115 3 269q2 143 2 247q0 133 -4 203q-2 9 -2 38q0 24 2 60q2 81 2 96q0 55 -6 207q-4 86 -4 149q0 49 2 85z" />
<glyph unicode="i" horiz-adv-x="376" d="M115 1634q0 9 15.5 11t62.5 2q72 0 75 -13q4 -4 7 -36t4.5 -84.5t3.5 -79.5q2 -30 2 -179v-45q0 -110 3 -381t3 -375v-42q-2 -61 -2 -193q0 -9 0.5 -45t0.5 -62.5t-1 -56t-4 -41.5q-6 -17 -63 -17q-6 1 -10 1q-66 2 -87 14q1 17 1 60v51q0 17 -1 32q0 60 2 83q2 42 2 106 q1 88 -3 218q-5 191 -5 290v33q0 344 -4 438q-2 80 -2 311z" />
<glyph unicode="j" horiz-adv-x="522" d="M8 96q-3 9 12 35q2 3 8.5 17t14 24t16.5 12q7 2 26.5 -9.5t23.5 -12.5q50 -29 85 -29q9 0 17 2q39 7 55.5 89t16.5 169q-9 61 -9 378q0 86 1 192q2 296 2 420q0 83 -1 90q-9 91 -9 131q0 29 5 30q2 0 18 3t27.5 5t30 3.5t31.5 0t25.5 -6t17.5 -13.5q0 -181 4 -373 q0 -3 5 -396t5 -413q0 -10 1 -45t1 -45q0 -9 -1.5 -48.5t-3 -54.5t-4.5 -44t-8 -49.5t-13 -38.5q-4 -10 -18 -28.5t-17 -27.5q-65 -65 -156 -65q-32 0 -67 8q-38 7 -84.5 33.5t-57.5 56.5z" />
<glyph unicode="k" horiz-adv-x="792" d="M119 326q1 41 1 197v314t-0.5 310t-0.5 160q0 67 2 104q3 29 3 76q0 16 1 32q0 33 -1 69l-1 54q0 8 34 16q23 5 48 6q13 0 25 -2q38 -4 49 -20q5 -118 5 -194v-24q-1 -80 -6 -244t-6 -242h6q34 0 58 10q26 12 59 37q41 31 47 39q48 66 82 238q4 28 7 81t6 74q4 36 4 85 q0 33 -2 71q5 19 2.5 37t0 31.5t15.5 13.5q49 0 59 2q7 1 26.5 0t38.5 -2.5t21 -1.5q3 -64 3 -170q-1 -10 -2 -52.5t-3 -64.5q-6 -122 -41 -244t-88 -190q-11 -14 -44 -38t-40 -36q7 -15 31 -39t31 -35q8 -12 14.5 -25t11.5 -28.5t8 -25.5t7.5 -31t7.5 -31q35 -123 41 -149 q3 -16 31 -141t39 -187q11 -52 32 -189q-25 -9 -77 -9h-11q-60 1 -65 9q-8 17 -31 144q-3 16 -14 56t-13 61q-15 102 -49 237q-7 25 -22 68t-19 59q-3 10 -10.5 43t-14.5 53.5t-16 34.5q-24 29 -49 42t-65 16q-2 -34 -2.5 -103.5t2.5 -175.5q1 -53 1 -109q0 -180 -12 -399 q-11 -6 -64 -6h-9q-61 0 -76 8q-6 254 -6 308v12z" />
<glyph unicode="l" horiz-adv-x="604" d="M86.5 267q-1.5 18 2 51.5t3.5 54.5v148q0 221 4 437v50q0 68 -2 168q-2 116 -2 216v40q0 117 10 202q6 7 17.5 10.5t20.5 3.5t25.5 -0.5t20.5 -0.5h22t20.5 -0.5t16.5 -5.5t9 -15q3 -34 3 -71t-2.5 -101.5t-2.5 -81.5q11 -391 12 -573v-23q0 -72 -5 -195.5t-5 -193.5v-22 q33 -11 144 -11q44 0 101 2q23 1 38 1q30 0 30 -3q15 -7 15 -112q-19 -22 -134 -26q-33 -1 -63 -1q-73 0 -127 8q-25 3 -56 1.5t-63 1t-41 12.5q-10 11 -11.5 29zM120.5 112.5q1.5 8.5 12.5 12.5q12 5 54 5h22q34 0 73 -2q53 -2 54 -1q113 0 199 6q8 1 11.5 -13t2.5 -35 t-3 -41t-4.5 -34.5t-2.5 -13.5q-50 -4 -102 -4q-35 0 -72 2h-22h-59q-62 -2 -101.5 -2.5t-53.5 2.5q-6 2 -4.5 21t0.5 24q1 19 -2.5 42t-2 31.5z" />
<glyph unicode="m" horiz-adv-x="1064" d="M100.5 1622q-0.5 6 5.5 12q18 9 61 9q23 -1 55 -3q88 -8 97 -28q24 -75 43 -168t38.5 -207t31.5 -174q29 -136 107 -707q28 168 76.5 491t82 553t35.5 230q31 6 91 6h40q90 -2 103 -16q7 -26 9 -79q1 -26 1 -51q-1 -26 -1 -49q-1 -20 0 -40q0 -27 1 -53q3 -99 3 -178v-26 q0 -90 -2.5 -206t-2.5 -131q0 -515 -8 -692q-1 -15 4 -58.5t0 -50.5q-5 -14 -77 -14q-2 0 -5 -1q-68 0 -76 15q-4 10 -7 50q-2 24 -2 44q0 13 1 23q9 194 9 444.5t-9 556.5q-12 -96 -96 -539.5t-115 -576.5q-2 -8 -7 -9.5t-18.5 0.5t-23.5 1q-8 0 -22.5 -1.5t-22.5 -2 t-17.5 0t-14.5 4.5t-7 11q-57 253 -84 447q-58 451 -111 663q-1 -40 -1 -107q-1 -84 1 -210q1 -103 2 -176q0 -88 -2 -133q5 -40 6 -262v-53q0 -171 -6 -179q-15 -12 -75 -12h-3q-57 0 -75 18q-5 27 -5 66q0 17 1 37q3 66 3 221v54q0 22 -1 43q0 164 4 235q1 12 1 39 q0 74 -6 261q-5 171 -5 248q0 38 1 52q3 29 3 73q-1 40 -3 91q-3 57 -2 96q0 36 2 57q1 8 -2 21.5t-3.5 19.5z" />
<glyph unicode="n" horiz-adv-x="833" d="M63 141q7 147 7 361q1 44 1 102q0 115 -3 284t-3 281q0 56 1 97q0 156 2 188q2 24 3.5 72t3 79t3.5 35q4 8 54 8q6 0 11 1q42 0 66 -4q50 -5 52 -9l1 -4q4 -15 29.5 -83.5t26.5 -69.5q7 -28 25.5 -80.5t21.5 -61.5q55 -191 140 -534t99 -443v17q0 73 5 387q4 244 4 346 q0 51 -1 66q-3 7 -3 56q0 25 1 61q2 107 2 132v213q30 4 58 4q79 0 80 -2q6 -13 8 -54q2 -33 2 -68v-18q0 -15 -1 -29q0 -30 1 -60q-1 3 -1.5 -119t-1.5 -301.5t-2 -362.5t-3 -322.5t-4 -160.5q0 -140 -5 -147q-5 -6 -35.5 -7t-61.5 0.5t-34 0.5q-35 -1 -53 25t-33 85 q-10 40 -31.5 105.5t-31.5 105.5q-3 14 -13.5 47t-13.5 50q-80 320 -221 917q6 -162 6.5 -490.5t1.5 -385.5v-22q0 -60 -7 -212q-9 -185 -15 -215q-2 -8 -62 -8q-4 0 -8 -1q-52 0 -55 7q-13 37 -13 141z" />
<glyph unicode="o" d="M98 679q2 53 7 155.5t6 138.5q2 192 18 334q17 161 55 237q52 100 166 105h11q63 0 125 -30q68 -33 102 -81q56 -79 67 -244q5 -71 5 -141v-23v-41q0 -62 2 -128q0 -209 -20 -406.5t-67 -265.5q-39 -57 -117 -69q-27 -4 -53 -4q-52 0 -103 16q-78 24 -128 69 q-13 12 -29 45.5t-20 50.5q-16 65 -22 147q-5 66 -5 113v22zM139 112.5q2 8.5 13 12.5q12 5 48 5h19q29 0 65 -2q46 -2 48 -1q184 0 270 6q8 1 11.5 -13t2.5 -35t-3 -41t-4.5 -34.5t-2.5 -13.5q-64 -4 -137 -4q-52 0 -109 2h-21h-53q-56 -2 -91 -2.5t-48 2.5q-6 2 -4.5 21 t0.5 24q1 19 -2.5 42t-1.5 31.5zM248 581v-14q0 -49 12 -106q12 -47 39 -70q17 -15 65 -29q27 -7 45 -7q14 0 23 5q10 7 23 43t20 68q24 92 24 359q0 62 -1 135q-1 72 -1.5 101.5t-1 36.5t-1.5 10t-3 35.5t-4 98.5q-4 160 -34 213q-11 21 -31.5 40t-38.5 16 q-13 -1 -32.5 -21t-26.5 -35q-39 -92 -43 -305q-1 -61 -13 -156q-9 -75 -9 -116q0 -11 1 -19q1 -15 1 -35q-1 -41 -5 -103q-6 -90 -8 -145z" />
<glyph unicode="p" horiz-adv-x="718" d="M8 631v131q0 6 24.5 5.5t24.5 0.5v102q0 56 -0.5 172t-0.5 189t1 171t4 173q2 8 0 30t5 29q90 17 169 17q87 0 160 -21q96 -28 155 -84t83 -155q13 -56 13 -157q1 -12 1 -23q0 -86 -4 -144q-5 -42 -8 -109.5t-8 -118.5t-19 -89q-44 -134 -282 -134q-45 0 -97 5 q-2 -27 -2 -100v-53v-56q0 -81 -2 -140q-2 -20 -3 -71.5t-3 -75.5q-6 -104 -14 -121q-4 -9 -34 -15q-14 -3 -30 -3q-17 0 -35 4q-36 6 -49 30q2 86 2 185t-1 223.5t-1 194.5q-2 1 -13 0t-23.5 1t-12.5 7zM216 1410q-1 -8 -1 -19q0 -21 1 -53q1 -46 1 -64q0 -34 -0.5 -120.5 t-0.5 -135.5t1.5 -121.5t5.5 -130.5q55 -10 98 -10q58 0 95 18q52 25 63 125q6 61 7.5 185.5t2.5 146.5v30q0 110 -26 166q-24 50 -96 79q-52 21 -101 21q-19 0 -37 -3q-7 -22 -10 -55.5t-3 -58.5z" />
<glyph unicode="q" horiz-adv-x="770" d="M88 907q-2 50 -2 112q0 87 4 198q2 60 4.5 93.5t9 85.5t20.5 87t36 57q3 3 22 24.5t35 36.5t29 19q11 4 25 6t34 3t25 1q16 1 32 1q64 0 124 -19q74 -24 106 -76q35 -56 52 -154t17.5 -200.5t0.5 -215v-196.5v-27q0 -37 -1.5 -94t-1.5 -93v-26q1 -42 1 -69v-24 q-1 -30 -3.5 -89t-3.5 -88q0 -63 -34 -145.5t-76 -110.5q-16 -10 -55.5 -14t-53.5 -13q0 -127 -14 -141q-5 -9 -49.5 -6.5t-67.5 18.5q-8 20 -8 134q-17 0 -42.5 8t-56 24.5t-54.5 49.5t-31 75q-10 67 -10 137q0 17 1 35v22q0 51 -3 145q-4 118 -5 159q0 7 -2 111t-4 159z M238 355q0 -13 0.5 -40t2.5 -43.5t5 -40t8.5 -38t12.5 -29t17 -22t23 -9.5q0 125 4 127q12 6 58.5 5.5t54.5 -5.5q3 -6 0 -52q-2 -22 -2 -41q0 -22 2 -40q11 4 21 11.5t17 16.5t13 22.5t9.5 24.5t7 28.5t5 28t2.5 29.5t1.5 26.5t1 24.5t0.5 19q11 160 12 425t2 315 q0 41 -8 127.5t-16 134.5q-4 25 -7 38.5t-9.5 35t-13.5 33t-19 24.5t-27 17.5t-37 5t-49 -6.5q-23 -6 -38.5 -21t-24 -31.5t-14 -48t-6.5 -53t-3 -63.5q-6 -111 -6 -213q0 -20 0.5 -57t0.5 -67t-1 -56q0 -41 1 -125.5t1 -124.5q0 -38 -1 -111t-1 -110v-32v-39z" />
<glyph unicode="r" d="M72 707v124q0 5 25.5 5t25.5 2v131q0 45 -1 144t-1 147q1 9 1 173t3 183q4 19 24.5 24.5t59.5 2.5t47 -3h11q186 0 306 -96q135 -113 135 -360q0 -34 -3 -70q-7 -107 -22 -174t-52 -117q-60 -77 -115 -106q78 -161 124 -363q37 -165 38 -332q0 -37 -2 -73q-7 -7 -37 -15 q-26 -7 -57 -8h-12q-38 2 -56 23q0 213 -46 413t-134 332q-13 1 -25 1.5t-21 1t-24 1.5q-2 -34 -2 -107q0 -63 2 -156q1 -56 0 -103q0 -120 -6 -182q-1 -13 -1 -73.5t-7 -80.5q-2 -7 -27.5 -16t-58.5 -7t-51 23q0 111 5 348t5 356q0 2 -25.5 2t-25.5 5zM270 836q44 -7 89 -7 h11q51 1 62 7q48 25 68.5 73.5t27.5 126.5q1 15 7.5 72.5t6.5 75.5q0 4 1 8q0 20 -2 63q-15 123 -81 193q-52 55 -133 55q-22 0 -46 -4q1 -51 1 -104t-1 -109q-2 -111 -6 -250.5t-5 -199.5z" />
<glyph unicode="s" horiz-adv-x="761" d="M60 336q2 81 22 137q3 10 6.5 30.5t8 32.5t12.5 15q21 9 46 9q17 0 33 -4q44 -9 58 -34l-8 -60t-8 -72q-2 -19 -2 -44v-21q1 -38 10 -67q21 -79 71 -115q23 -16 46 -16q27 1 55 25q50 44 67 112q5 20 5 45q0 45 -15 109q-2 10 -6 38.5t-8 41.5q-8 25 -19.5 48t-29 49 t-28 41t-35 46t-32.5 41q-19 21 -93 141.5t-87 149.5q-3 6 -17.5 32t-19.5 41q-19 72 -19 145q-1 40 5 81q16 114 80 200q50 64 96 84q87 37 156 37h10q83 -5 161 -65.5t99 -141.5q5 -17 7.5 -37.5t4.5 -52.5l4 -43q0 -23 -10 -120q0 -3 -1 -24t-2.5 -41.5t-4.5 -43 t-9 -38.5t-14 -19q-5 -1 -37.5 -4t-35.5 -3q-59 9 -64 19q-2 8 -4 48v25q0 23 2 40q8 41 8 106q0 20 -1 42q-3 95 -25 142q-6 14 -10 21t-12.5 17t-20.5 16t-29 8q-13 0 -44 -8t-44 -15q-62 -28 -84 -136q-10 -49 -10 -94q0 -54 14 -102q17 -56 66 -141q59 -99 155 -221 q67 -84 106.5 -156t59.5 -166q10 -49 11 -100q0 -56 -14 -116q-24 -112 -85 -171q-42 -40 -120 -56q-34 -7 -70 -7q-47 0 -97 12q-69 20 -109.5 65t-78.5 126q-22 53 -22 127v10z" />
<glyph unicode="t" horiz-adv-x="634" d="M44 1579v31q0 35 3 37q6 1 119 5q43 2 100 1q87 0 207 -4q18 -2 56.5 -2.5t63.5 -1t25 -3.5q0 -1 0.5 -17t0.5 -31t-0.5 -33t-3.5 -30t-7 -15q-9 -7 -22 -8t-33.5 1.5t-34.5 1.5q-8 0 -52 -3.5t-52 1.5q-4 -86 -4 -170.5t4 -167.5q2 -43 2 -110v-73q-1 -51 -1 -93 q0 -56 1 -96q2 -135 2 -158q0 -4 1 -11q-1 -34 -3 -142q-2 -130 -2 -148q-5 -206 -6 -213q0 -110 -17 -127q-2 -2 -31 -4q-16 -1 -34 -2q-14 0 -30 1q-35 2 -48 11q-12 33 -12 97q0 36 4 81q3 24 3 64q-1 34 -3 82q-3 70 -3 114q0 19 1 33q4 70 4 145q0 19 1 39q1 61 -1 137 q-2 100 -2 148q0 366 -2 561q-14 2 -33 2.5t-37 0t-36.5 -2t-34 -2.5t-28 -1.5t-19 1.5t-5.5 6v12q0 16 -1 56z" />
<glyph unicode="u" horiz-adv-x="780" d="M113 893q2 46 1.5 83.5t-1.5 68.5q-1 18 -1 39q0 49 5 112q1 16 3 76.5t3 77.5q1 14 1 58q0 9 -1 17q0 32 2 48q2 17 3 59.5t2.5 73t4.5 32.5q5 4 35 8q18 3 39 2q14 0 29 -1q37 -3 49 -19q-2 -80 -5.5 -182.5t-5.5 -176t-2 -161.5q0 -47 -2 -171q-2 -103 -3 -166 q1 -13 1 -23q0 -66 10.5 -160.5t32.5 -165.5q20 -64 70 -70q20 -1 48.5 12t37.5 27q4 6 7.5 15t6 16.5t4.5 20.5t3.5 21t3 23.5t1.5 22t1.5 24.5t1.5 23q4 108 8 288.5t6 254.5q2 91 2 327v20q0 23 -1 58q-2 42 -2 72q1 7 1 15q0 34 4 36q23 12 63 14q7 0 13 1q32 -1 58 -7 q30 -8 30 -16q0 -14 3 -96.5t3 -100.5q-2 -62 -2 -160.5t2 -232.5q0 -98 -10 -303q-6 -192 -23 -299q-8 -44 -18.5 -71.5t-32.5 -55.5q-79 -93 -192 -96h-9q-38 -1 -70 7q-36 8 -62.5 26.5t-40 30.5t-31.5 32q-33 40 -47 72q-18 46 -25 127q-13 117 -13 298q0 46 1 95z M153.5 112.5q1.5 8.5 12.5 12.5q12 4 36 4.5t55 -1t36 -1.5q246 0 332 6q8 1 11.5 -13t2.5 -35t-3 -41t-4.5 -34.5t-2.5 -13.5q-78 -6 -171 -6q-75 0 -159 4q-19 1 -55.5 -0.5t-54 -2t-27.5 2.5q-6 2 -4.5 21t0.5 24q1 19 -2.5 42t-2 31.5z" />
<glyph unicode="v" horiz-adv-x="743" d="M45 1636q52 13 86 13q47 0 59 -25q4 -8 9 -44t10 -77.5t6 -48.5q26 -149 72.5 -475.5t60.5 -411.5q18 69 36 204t28 183q1 8 18 119.5t34 218t36 213t28 133.5q36 13 83 13q5 -1 10 -1q53 -2 61 -14q4 -2 0.5 -56t-10.5 -83q-32 -214 -49 -307q-18 -115 -61 -365 t-62 -376q-4 -10 -21.5 -120t-34 -214.5t-18.5 -106.5q-16 -9 -70 -11h-13q-45 0 -69 13q-121 526 -198 1250q-3 32 -11 92.5t-12 96.5q-5 36 -7 88q-2 37 -1 72v27z" />
<glyph unicode="w" horiz-adv-x="1155" d="M39 1640q55 8 91 8q40 0 56 -10q2 0 7.5 -35.5t12 -81.5t9.5 -61q11 -96 37.5 -275t36.5 -222q18 -70 34.5 -221.5t22.5 -188.5q16 72 43.5 237.5t42.5 235.5q15 71 32 182.5t28 167.5q4 20 11.5 80t17 104.5t24.5 69.5q32 6 60 6h21q38 -4 52 -18q10 -66 25.5 -208.5 t19.5 -170.5q18 -131 39.5 -371.5t30.5 -314.5q10 41 22 129.5t16 110.5q38 236 43 266q14 79 47.5 254.5t49.5 267.5q2 6 5 23t7 29t10 14q23 5 60 5h28q57 -2 62 -12q2 -5 2 -17q0 -40 -29 -153q-8 -40 -22.5 -141t-24.5 -147q-31 -136 -76 -407.5t-63 -362.5 q-38 -215 -49 -285q-22 -127 -27 -129q-4 -2 -21.5 -2t-48.5 2q-10 1 -24 0t-26.5 0.5t-14.5 5.5q-1 5 -35 219q-4 32 -17.5 94.5t-17.5 88.5q-3 16 -24 123t-27 165q-3 28 -8.5 101t-11.5 112q-1 -6 -14.5 -63.5t-16.5 -85.5q-13 -67 -86 -482q-3 -19 -15 -65.5t-16 -75.5 q-2 -9 -6 -37t-6.5 -44t-10 -34t-16.5 -24q-15 -7 -54.5 -5.5t-53.5 5.5q-12 4 -18.5 14.5t-8 21t-3.5 30t-5 32.5l-133 920q-4 35 -35.5 269.5t-40.5 356.5z" />
<glyph unicode="x" horiz-adv-x="731" d="M8 -4q59 148 77 200t77 236q10 32 59 204.5t49 176.5q0 1 -4 18t-9.5 41t-8.5 39q-29 144 -82 289q-11 31 -29.5 96.5t-27.5 92.5q-11 37 -37 137q-22 86 -22 98q0 2 1 2q10 4 77 6h22q47 0 55 -6q4 -4 22 -64.5t27 -95.5q17 -67 63 -205.5t54 -166.5q25 51 71.5 187.5 t63.5 178.5q4 13 11.5 45t14.5 49q25 70 29 74q2 2 45 2h33q78 -1 78 -4q0 -4 -45 -156q-17 -68 -39 -122q-8 -23 -29.5 -81t-32.5 -91q-5 -25 -35.5 -115t-58.5 -167l-28 -77q0 -1 7 -26.5t17 -60t14 -52.5q79 -338 189 -684q-1 -3 -19 -3t-35 1t-24 0q-84 0 -86 4 q-24 72 -78.5 265t-77.5 265q-22 -55 -68 -197.5t-63 -189.5q-52 -138 -57 -143q-3 -2 -78 -4q-15 0 -27 -1q-49 0 -55 5z" />
<glyph unicode="y" horiz-adv-x="692" d="M71 1632h11q72 -1 76 -8q8 -13 22 -72t19 -73q24 -82 46 -175.5t48.5 -212.5t42.5 -184q1 0 12 33.5t25.5 80t21.5 75.5q13 52 49.5 216t42.5 199q7 8 20 60.5t17 60.5q43 10 93 10h5q53 -1 60 -8q-4 -18 -21.5 -95t-23.5 -112q-2 -19 -12.5 -53t-16.5 -59 q-20 -62 -46 -188t-38 -160q-8 -23 -30 -100t-42.5 -135.5t-39.5 -94.5q-6 -80 -6 -199v-20q1 -43 1 -77q0 -68 -1 -95q0 -28 3.5 -78.5t3.5 -90t-7 -73.5q-4 -9 -46 -11q-15 -1 -29 -1q-26 0 -51 2q-40 4 -40 8q0 11 -1 64.5t-1 72.5q-8 127 -8 220q0 38 1 71q1 24 1 62 t-1 89v56q-24 162 -38 211q-8 30 -113 463q-13 61 -39 153q-35 145 -35 160q0 8 65 8z" />
<glyph unicode="z" horiz-adv-x="708" d="M61 6q-5 47 -5 80q0 40 7 61q12 30 30 92.5t28 90.5q10 23 50 143t50 154q9 25 78 215q-86 0 -98 2q-3 29 -3 72.5t3 60.5q16 -2 145 -2q17 56 62 221q5 17 24 68.5t23 74.5q24 104 32 127q-25 7 -85 7q-62 0 -132 -2q-47 -1 -75 -1h-23q-30 2 -38 22q-7 20 -2 54 q2 15 2 33q0 21 -3 45q5 3 10 7q6 5 42 5h26q34 0 75 -1t93 -2.5t82 -2.5h43h40h32h50q42 -2 66 -6q2 -32 2 -58q0 -48 -8 -73q-15 -34 -33.5 -90t-40.5 -129.5t-28 -91.5q-11 -35 -26 -98t-21 -83q-3 -13 -9 -26q9 -1 39.5 -1t52.5 -1.5t27 -5.5q6 -6 6 -97q0 -25 -4 -26 q-4 -2 -166 -2l-63 -176q-54 -149 -174 -506q23 -8 93 -8q31 0 72 2q66 2 108.5 2t62.5 -2q8 -12 8.5 -24.5t-1.5 -29.5t-1 -30v-6q1 -7 1.5 -15.5l1 -17t0 -16t-2.5 -9.5q-7 -15 -29 -18t-61.5 1t-57.5 3h-26q-48 0 -146 -2q-49 -1 -84 -1q-58 0 -78 3q-14 1 -22.5 0.5 t-13 -0.5t-6 2.5t-1.5 11.5z" />
<glyph unicode="{" horiz-adv-x="415" d="M20 795q-3 13 0 19t0 17q77 25 119 101q16 31 18.5 68.5t-4.5 66.5t-16.5 69.5t-11.5 65.5q-4 36 -13 86t-12 70q1 19 -9.5 55.5t-16.5 67t6 86.5q16 38 60 86t96 63q9 3 31.5 10t38.5 11.5t37.5 10t30 5.5t15.5 -4l10 -66q-37 5 -113 -33t-79 -81q-5 -61 6 -213 q3 -47 23.5 -194.5t23.5 -186.5q6 -65 -41.5 -103.5t-118.5 -52.5q27 -10 43.5 -17t43 -21.5t42 -29t27.5 -36t12 -45.5q0 -113 -10 -172q-5 -27 -18 -85t-22 -103.5t-17 -98t-7 -93t13 -63.5q25 -45 65.5 -70t124.5 -32q14 -25 0 -39q-18 -17 -90 -7t-139 38 q-37 19 -56.5 95.5t-19.5 135.5q0 37 4.5 76t14 95t12.5 77q7 64 18 117q2 10 9 42.5t8.5 48t-2 42t-15.5 49.5q-10 20 -60.5 42t-60.5 30z" />
<glyph unicode="|" horiz-adv-x="270" d="M90 1372q-11 249 4 354q23 16 40 17t22.5 -4t5.5 -8q3 -26 4 -78.5t1 -115t1 -87.5q7 -53 3.5 -742t0.5 -825q-19 4 -32.5 2t-25 -1.5t-18.5 7.5q-3 132 3.5 388t2.5 333q-2 47 -7 394t-5 366z" />
<glyph unicode="}" horiz-adv-x="415" d="M23 -70q0 10 3 16l3 7q84 7 124.5 32t65.5 70q12 23 13 63.5t-7 93t-17 98t-22 103.5t-18 85q-10 59 -10 172q0 24 12 45.5t27.5 36t42 29t43 21.5t43.5 17q-71 14 -118.5 52.5t-41.5 103.5q3 39 23.5 186.5t23.5 194.5q11 152 6 213q-3 43 -79 81t-113 33l10 66 q7 4 15.5 4t30 -5.5t37.5 -10t38.5 -11.5t31.5 -10q52 -15 96 -63t60 -86q12 -56 6 -86.5t-16.5 -67t-9.5 -55.5q-3 -20 -12 -70t-13 -86q-2 -25 -11.5 -65.5t-16.5 -69.5t-4.5 -66.5t18.5 -68.5q42 -76 119 -101q-3 -11 0 -17t0 -19q-10 -8 -60.5 -30t-60.5 -42 q-12 -23 -15.5 -49.5t-2 -42t8.5 -48t9 -42.5q11 -53 18 -117q3 -21 12.5 -77t14 -95t4.5 -76q0 -59 -19.5 -135.5t-56.5 -95.5q-67 -28 -139 -38t-90 7q-6 6 -6 16z" />
<glyph unicode="~" horiz-adv-x="651" d="M110.5 954q-0.5 23 15.5 54t44 39q55 17 106 0q19 -6 71 -49.5t69 -49.5l11 -4q11 -3 15 -4t13.5 -1.5t14 3t9 11t4.5 20.5q0 12 13 20t26 2.5t13 -26.5q0 -58 -26 -84.5t-60 -32.5q-30 -6 -62 9t-56.5 38t-62 47.5t-75.5 32.5q-17 -2 -28 -22t-17.5 -31t-36.5 0 q0 5 -0.5 28z" />
<glyph unicode="&#xa2;" horiz-adv-x="714" d="M72 656q3 75 10 179.5t6 135.5q0 13 -1 37.5t-1 46t2 41.5q13 154 84 225q73 73 160 76q2 0 2 127t2 127q29 0 59 -6q3 0 1.5 -66.5t-3.5 -124.5t2 -68q89 -17 140 -53q62 -43 84 -125.5t20 -210.5q0 -27 -11 -35.5t-32.5 -6.5t-26.5 1q-12 -5 -41.5 -2.5t-29.5 15.5 q0 17 -1.5 28t-2.5 33q-2 44 -25 137q-24 86 -76 103q-7 3 -13.5 -330.5t-6.5 -548.5l14 4q48 12 76 47q16 22 18 121.5t2 100.5q7 15 62.5 19t85.5 -15q-1 -29 -1.5 -86.5t-2.5 -86.5t-12 -67.5t-29 -65.5q-32 -43 -89 -75.5t-122 -38.5q-5 -1 -3 -67.5t4.5 -122.5 t-3.5 -66q-2 0 -29 3t-29 3t0 64.5t4.5 120t-0.5 65.5q-74 13 -112 43q-31 24 -55 55q-59 72 -74 160q-9 75 -6 150zM230 702q-1 -66 0.5 -86.5t6.5 -63.5t18 -71.5t34 -56.5q21 -21 33 -27q0 -2 4 -2q-7 66 -4 261t6 405t0 209q-36 -4 -57.5 -51.5t-26.5 -104.5 q-11 -148 -11 -205q-2 -31 -2 -61v-60q0 -20 -1 -86z" />
<glyph unicode="&#xa3;" horiz-adv-x="897" d="M65 251q-7 62 7 122q5 25 9.5 41t19 43t35 44.5t58.5 34.5t89 25q-7 114 -29 215q-15 2 -55 2.5t-69.5 3.5t-35.5 11q-12 15 -14.5 45t6.5 39q15 15 139 0q-10 64 -9 209.5t-3 224.5q-2 46 7.5 110t23.5 92q13 25 64 66t77 49q60 16 119 0.5t100 -51.5q51 -45 80.5 -138 t32.5 -192q-5 -5 -23 -5.5t-37.5 0.5t-38.5 -3q-13 3 -17.5 7t-8 16t-8.5 22q-11 18 -23 66.5t-28 83.5t-44 39q-36 6 -60.5 -15t-35.5 -64.5t-16 -94t-2 -115.5t6.5 -115.5t9 -108.5t6.5 -81q25 -3 80 1t85.5 6t47.5 -7q3 -5 6.5 -15.5t3 -31.5t-9.5 -41q-27 -9 -84 -5 q-47 3 -96 -12q2 -17 10.5 -70t10.5 -77q1 -12 3 -42.5t4.5 -51.5t6.5 -37q12 -44 28.5 -89.5t40 -95t54 -82t61.5 -34.5q13 -1 23.5 29.5t15 68.5t2.5 63q0 28 -4 56q7 3 16 3t24.5 -2.5t18.5 -2.5q86 0 94 -3q5 -2 5 -6v-13q1 -13 1.5 -29.5t0.5 -40t-1.5 -48t-4.5 -49 t-8 -48.5t-13 -42q-10 -41 -72 -82t-96 -39q-29 0 -54.5 11.5t-39 24t-39 39.5t-39.5 40q7 -52 -17 -83.5t-63.5 -38.5t-76.5 -4t-62 13q-4 2 -18 7t-19.5 7t-17 7t-18.5 9t-15.5 10.5t-15.5 13.5q-8 7 -19 23t-24 37t-15 24q-26 39 -33 101zM215 320q-17 -62 17 -113 q39 -59 109 -41q31 8 65 33q-19 54 -49 111t-58 93q-67 -17 -84 -83z" />
<glyph unicode="&#xa7;" horiz-adv-x="727" d="M57 326.5q2 30.5 5 49.5t6 23q9 14 73 15.5t72 -13.5q6 -5 4 -35t-2 -34q3 -37 1.5 -64.5t0 -56t10.5 -47.5q19 -34 40.5 -47t56.5 -13q4 0 8 2t7 5.5t6 7.5t5.5 10.5t4.5 11.5t4.5 12.5t3.5 12t3 12t3 10.5q10 31 11 61t-3 73q0 51 -2 57q-2 9 -19 23.5t-20 19.5 q-11 14 -55.5 88t-53.5 92q-19 35 -60.5 96.5t-63.5 111t-33 120.5q-18 123 22 223q17 39 69 84t60 55q1 41 0 79.5t3 84.5t14 78q3 10 7 18.5t11 17t12 14t15 13.5t14 11t16 11.5t15 10.5q54 35 146.5 25t141.5 -53q27 -23 44 -65t23.5 -98.5t8.5 -94t2 -89.5 q0 -6 -22 -7.5t-37 1.5q-17 3 -39.5 -0.5t-30.5 0.5t-8 23q0 196 -39 233q-3 3 -55.5 10.5t-63.5 4.5q-47 -9 -28 -203q1 -7 -2 -8t4 -11q15 -32 53 -87.5t53 -84.5q11 -21 38 -66t36 -61q77 -130 102 -249q19 -88 20.5 -181.5t-16.5 -132.5q-21 -42 -49.5 -68t-81.5 -61 q12 -233 -88 -297q-34 -23 -86 -30.5t-98 0.5q-122 18 -164 143q-22 52 -33 137q-4 36 -2 66.5zM219 1094q-3 -40 8 -129q4 -43 38 -115.5t93.5 -175.5t73.5 -129q14 -12 36 -58.5t30 -54.5q22 28 23.5 99.5t-10 141t-28.5 113.5q-7 19 -20 44t-23 42t-29 47t-24 39 q-7 13 -34 63.5t-46 80.5q-37 82 -55 82q-4 -9 -11 -22.5t-10.5 -21t-7 -19.5t-4.5 -27z" />
<glyph unicode="&#xa8;" horiz-adv-x="399" d="M-10 1880q0 9 0.5 16.5t3 14t4.5 11t7 10t7.5 8t9 7.5t8.5 6t10 5.5t9 5.5q52 8 80 -18t24.5 -66t-32.5 -72q-121 -43 -131 72zM246.5 1880q-3.5 40 24 66t79.5 18q2 -1 9 -5t9.5 -6t9 -6t9.5 -7t7.5 -8t7 -10t5 -11.5t3 -14t0.5 -16.5q-10 -115 -131 -72 q-29 32 -32.5 72z" />
<glyph unicode="&#xa9;" horiz-adv-x="1050" d="M73.5 1388.5q-1.5 35.5 3.5 82t29.5 98.5t67.5 96q37 39 64 62t41.5 31t45.5 23t54 27q68 12 110 16.5t91 2.5t92 -15h1l1 -1h1h1l1 -1h1h1h1q85 -26 119 -50q63 -46 115 -183l4 -10q32 -86 32 -162.5t-32 -167.5q-43 -119 -141 -195.5t-230 -70.5q-100 4 -199.5 35.5 t-128.5 60.5q-38 38 -66 75t-40.5 61t-19 47.5t-7 30t-0.5 13.5q0 1 -5.5 30t-7 64.5zM133 1452.5q-17 -82.5 12 -172t107 -158.5q73 -63 177 -83.5t200 2t171 96t91 182.5q15 99 -15.5 196.5t-101.5 167t-180 84.5t-252 -51q-82 -38 -137 -109.5t-72 -154zM354 1277 q-1 45 0 90.5t2.5 93t1.5 52.5q0 82 56 103q42 22 96 22q90 0 139 -18q16 -5 27.5 -13t18 -20.5t9.5 -20.5t6.5 -24.5t4.5 -19.5q9 -30 -8 -47q-6 -2 -22.5 -3t-18.5 3q0 3 -1 25.5t-1 29.5q-2 10 -21 39q-2 6 -61 26q-28 7 -60 7q-28 -2 -66.5 -16.5t-39.5 -26.5 q-13 -52 -13 -64q-2 -31 -2 -190q0 -43 8 -65t40 -42q5 -3 37.5 -7.5t39.5 -4.5q21 -3 60.5 6t54.5 16q10 7 13 34l3 28q12 12 54 -2q0 -3 -1 -12t-1.5 -12.5t-1.5 -11t-2.5 -11.5t-3.5 -10.5t-4.5 -10.5t-6 -9t-8 -9t-10.5 -8q-34 -22 -106 -30.5t-132 9.5q-16 5 -35 18 q-7 3 -12 7.5t-8 7.5t-6.5 8.5t-5 8.5t-4 9.5t-3.5 8.5q-5 11 -6 56z" />
<glyph unicode="&#xab;" horiz-adv-x="552" d="M72 801q-4 8 25 42t53 58q21 23 63 58.5t61 54.5q8 8 20.5 -4t12.5 -17q0 -3 -21 -35.5t-52 -75t-52 -65.5q-5 -9 -5 -17t8 -19.5t15 -19t16 -16t11 -10.5q19 -22 47.5 -60t28.5 -48q0 -5 -9 -19t-18 -10q-22 10 -100 79t-104 124zM246 801q-4 8 25 42t53 58 q21 23 63.5 58.5t61.5 54.5q8 8 20 -8t12 -21q0 -3 -21 -33.5t-51.5 -71t-52.5 -63.5q-7 -7 -7.5 -14t5 -15t12 -15t17.5 -18t18 -20q2 -3 13 -16.5t20 -25t20 -26t17 -25t6 -15.5q0 -3 -13.5 -19t-19.5 -12q-26 15 -99 82.5t-99 122.5z" />
<glyph unicode="&#xad;" horiz-adv-x="790" d="M99 800q1 21 3 41t4.5 34.5t2.5 13.5q140 10 329 2q18 -1 84.5 0.5t108.5 2t57 -2.5q6 -2 4.5 -21t-0.5 -24q-1 -19 2.5 -42t2 -31.5t-12.5 -12.5q-12 -4 -57.5 -4.5t-102.5 0.5l-57 2q-268 0 -354 -6q-8 -1 -11.5 13t-2.5 35z" />
<glyph unicode="&#xae;" horiz-adv-x="1050" d="M73.5 1388.5q-1.5 35.5 3.5 82t29.5 98.5t67.5 96q37 39 64 62t41.5 31t45.5 23t54 27q68 12 110 16.5t91 2.5t92 -15q49 -15 74.5 -26.5t55.5 -37.5t55 -67.5t61 -113.5q1 -3 9 -25.5t9.5 -28t7 -26t6 -31t2.5 -32t-0.5 -38.5t-6 -41.5t-10.5 -51t-17 -56.5 q-39 -119 -138 -195.5t-233 -70.5q-100 4 -199.5 35.5t-128.5 60.5q-38 38 -66 75t-40.5 61t-19 47.5t-7 30t-0.5 13.5q0 1 -5.5 30t-7 64.5zM143 1456q-18 -79 10.5 -165.5t106.5 -155.5q76 -71 179.5 -94.5t197 -1t166 96t88.5 183.5q15 99 -14 195.5t-97 165t-175.5 82.5 t-250.5 -52q-82 -38 -137.5 -106.5t-73.5 -147.5zM350 1157q0 89 4 281q0 14 -1 44t-1 46q1 5 1 54t1 54q1 4 3.5 6.5t8 3t9.5 0.5t10.5 -0.5t9.5 -0.5q48 0 151 -8.5t118 -20.5q47 -41 41 -133q-3 -61 -23 -90q-19 -24 -35 -33q27 -54 39.5 -97.5t9.5 -103.5 q-5 -5 -22.5 -7t-28.5 7q0 115 -55 195h-193q-2 -22 -1 -81t-1 -87q-1 -7 -0.5 -17t-1.5 -12q-2 -5 -17.5 -7t-25.5 7zM399 1397q14 -3 116 -2.5t106 2.5q23 12 30 61q2 23 2 68q0 29 -31.5 46t-76.5 20.5t-83 3t-61 -4.5q1 -40 -0.5 -107t-1.5 -87z" />
<glyph unicode="&#xaf;" horiz-adv-x="1024" />
<glyph unicode="&#xb0;" horiz-adv-x="468" d="M96 1546q1 13 7.5 28t19.5 28q11 12 21 19.5t16 11t17 8.5t18 8q47 8 88 -4q27 -8 33.5 -14.5t39.5 -59.5q15 -25 14.5 -40t-14.5 -58q-11 -35 -40.5 -58t-69.5 -22q-30 1 -60.5 10.5t-38.5 17.5q-18 18 -29.5 37.5t-13.5 27.5t-2 11q0 1 -2 8.5t-3.5 17.5t-0.5 23z M155.5 1536.5q-9.5 -36.5 24.5 -66.5q37 -33 83.5 -21.5t55.5 56.5q10 51 -23.5 80.5t-92.5 3.5q-38 -16 -47.5 -52.5z" />
<glyph unicode="&#xb4;" horiz-adv-x="217" d="M-6 1763q13 25 23 78.5t20 69.5q2 8 5 35t7 43.5t10 17.5q104 12 154 3q10 -4 10 -7q-6 -6 -19 -29t-29.5 -53t-27.5 -47q-15 -22 -31 -52.5t-25 -47.5t-11 -17h-3q-90 -8 -83 6z" />
<glyph unicode="&#xb7;" horiz-adv-x="358" d="M92 877q0 10 1.5 18.5t3 14.5t7 13t7.5 10t10 8.5t9.5 7t11 7t10.5 5.5q52 8 79.5 -18t24 -66t-32.5 -72q-121 -43 -131 72z" />
<glyph unicode="&#xbb;" horiz-adv-x="552" d="M66 985q0 5 12 21t20 8q19 -19 61.5 -54.5t63.5 -58.5q24 -24 53 -58t25 -42q-26 -55 -99.5 -122.5t-99.5 -82.5q-6 -4 -19 11.5t-13 19.5q0 12 75 108q7 9 18 20t17.5 18t12 15t5 15t-7.5 14q-22 23 -52.5 63.5t-51 71t-20.5 33.5zM240 993q0 5 12 17t20 4 q19 -19 61.5 -54.5t63.5 -58.5q24 -24 53 -58t25 -42q-26 -55 -104.5 -124t-100.5 -79q-9 -4 -17.5 10t-8.5 19q0 10 28 48.5t47 59.5q2 2 11 10.5t16 16t15.5 19t8.5 19.5t-5 17q-21 23 -52 65.5t-52 75t-21 35.5z" />
<glyph unicode="&#xbf;" horiz-adv-x="702" d="M44.5 205.5q5.5 100.5 27.5 175.5q11 36 34.5 73.5t55.5 79.5t47 66q7 9 18 32t13 27q38 73 53 183q6 20 1.5 83.5t-1.5 114.5q0 3 -4 36t2 48q18 2 110 2q14 -1 21 -6t8.5 -11.5t3 -20t4.5 -23.5q3 -15 3.5 -46.5t2.5 -43.5q1 -10 5 -46.5t3.5 -47.5t-1.5 -60 q-3 -88 -13 -137q-23 -102 -141 -266q-44 -63 -66.5 -119.5t-23.5 -138.5q0 -141 45 -162q12 -7 44.5 -10.5t45.5 -1.5q12 1 53.5 34.5t50.5 45.5q14 16 30 52t16 56v41q2 12 -0.5 21.5t2.5 23.5q31 13 85 10t58 -22q12 -58 -2.5 -141.5t-50.5 -137.5q-6 -8 -54.5 -52.5 t-58.5 -51.5q-61 -37 -84 -39q-124 -9 -211 47.5t-117 153.5q-20 78 -14.5 178.5zM276.5 1397.5q-3.5 60.5 28.5 87.5q4 1 7 4t12 4q44 2 69 -6.5t34 -20t21 -36.5q3 -7 5 -11q14 -33 4 -65.5t-35 -48.5q-21 -14 -54.5 -12t-56.5 20q-31 24 -34.5 84.5z" />
<glyph unicode="&#xc0;" horiz-adv-x="770" d="M49 14q0 45 35 318q1 12 2.5 33t3.5 38t6 33q18 191 35 322q10 72 39 207.5t39 199.5q30 186 63 310q9 33 28.5 83t29.5 82q32 18 81.5 15t69.5 -21q6 -5 9 -13t6.5 -23t7.5 -27q28 -88 63 -285q62 -372 86 -643v-8q1 -2 40 -1t40 -1q2 -3 2.5 -23.5t0 -43t-1.5 -44 t-1 -22.5q0 -6 -34.5 -4.5t-34.5 0.5q0 -5 5 -52.5t12.5 -114t10.5 -96.5q2 -20 11.5 -73.5t14.5 -96.5t1 -59q-6 -12 -52.5 -15t-84.5 9q-22 39 -33 125q-3 22 -16.5 110t-21 149t-11.5 116q-181 10 -246 8q-17 -71 -23 -154q-3 -22 -14.5 -77.5t-15.5 -84.5q-3 -18 -7 -63 t-8.5 -78t-9.5 -41q-7 -11 -56.5 -9t-70.5 15zM242 1997q-6 6 25 8q59 5 139 -4q6 -1 10 -17.5t7 -43.5t5 -35q10 -16 20 -69.5t23 -78.5q6 -14 -86 -6q-2 0 -11.5 17t-25.5 47.5t-31 52.5q-12 19 -40 70.5t-35 58.5zM272 637q47 -4 131.5 -5t88.5 1q-7 54 -19 170 t-20.5 188t-24.5 169t-35 171q-14 -57 -22 -112q-4 -30 -17.5 -88t-15.5 -70q-6 -37 -24.5 -126.5t-29 -159.5t-12.5 -138z" />
<glyph unicode="&#xc1;" horiz-adv-x="770" d="M49 14q0 45 35 318q1 12 2.5 33t3.5 38t6 33q18 191 35 322q10 72 39 207.5t39 199.5q30 186 63 310q9 33 28.5 83t29.5 82q32 18 81.5 15t69.5 -21q6 -5 9 -13t6.5 -23t7.5 -27q28 -88 63 -285q81 -483 101 -837q2 -39 12 -115.5t12 -100.5q2 -20 11.5 -73.5t14.5 -96.5 t1 -59q-6 -12 -52.5 -15t-84.5 9q-22 39 -33 125q-3 22 -16.5 110t-21 149t-11.5 116q-181 10 -246 8q-17 -71 -23 -154q-3 -22 -14.5 -77.5t-15.5 -84.5q-3 -18 -7 -63t-8.5 -78t-9.5 -41q-7 -11 -56.5 -9t-70.5 15zM272 643q7 -1 53 -5t54.5 -4.5t55.5 -2.5t57 2 q-7 54 -19 170t-20.5 188t-24.5 169t-35 171q-14 -57 -22 -112q-4 -30 -17.5 -88t-15.5 -70q-7 -39 -25 -125.5t-28.5 -155.5t-12.5 -137zM326 1757q13 25 23 78.5t20 69.5q2 8 5 35t7 43.5t10 17.5q104 12 154 3q10 -4 10 -7q-6 -6 -19 -29t-29.5 -53t-27.5 -47 q-15 -22 -31 -52.5t-25 -47.5t-11 -17h-3q-90 -8 -83 6z" />
<glyph unicode="&#xc2;" horiz-adv-x="770" d="M49 14q0 45 35 318q1 12 2.5 33t3.5 38t6 33q18 191 35 322q10 72 39 207.5t39 199.5q30 186 63 310q9 33 28.5 83t29.5 82q32 18 81.5 15t69.5 -21q6 -5 9 -13t6.5 -23t7.5 -27q28 -88 63 -285q81 -483 101 -837q2 -39 12 -115.5t12 -100.5q2 -20 11.5 -73.5t14.5 -96.5 t1 -59q-6 -12 -52.5 -15t-84.5 9q-22 39 -33 125q-3 22 -16.5 110t-21 149t-11.5 116q-181 10 -246 8q-17 -71 -23 -154q-3 -22 -14.5 -77.5t-15.5 -84.5q-3 -18 -7 -63t-8.5 -78t-9.5 -41q-7 -11 -56.5 -9t-70.5 15zM178 1792q1 15 22.5 37t46.5 40.5t27 20.5q9 9 33 35 t43 44.5t35 29.5q0 4 14 -7t45.5 -36.5t53.5 -42.5q101 -80 114 -121q3 -8 -14 -24.5t-23 -16.5q-2 0 -36.5 26t-76.5 56t-59 37q-18 -14 -97 -63t-89 -52q-4 -1 -19 13.5t-20 23.5zM272 643q7 -1 53 -5t54.5 -4.5t55.5 -2.5t57 2q-7 54 -19 170t-20.5 188t-24.5 169 t-35 171q-14 -57 -22 -112q-4 -30 -17.5 -88t-15.5 -70q-7 -39 -25 -125.5t-28.5 -155.5t-12.5 -137z" />
<glyph unicode="&#xc3;" horiz-adv-x="770" d="M49 14q0 45 35 318q1 12 2.5 33t3.5 38t6 33q18 191 35 322q10 72 39 207.5t39 199.5q30 186 63 310q9 33 28.5 83t29.5 82q32 18 81.5 15t69.5 -21q6 -5 9 -13t6.5 -23t7.5 -27q28 -88 63 -285q81 -483 101 -837q2 -39 12 -115.5t12 -100.5q2 -20 11.5 -73.5t14.5 -96.5 t1 -59q-6 -12 -52.5 -15t-84.5 9q-22 39 -33 125q-3 22 -16.5 110t-21 149t-11.5 116q-181 10 -246 8q-17 -71 -23 -154q-3 -22 -14.5 -77.5t-15.5 -84.5q-3 -18 -7 -63t-8.5 -78t-9.5 -41q-7 -11 -56.5 -9t-70.5 15zM204.5 1879q-0.5 23 15.5 54t44 39q55 17 107 0 q19 -6 70.5 -49t68.5 -49q1 0 11.5 -3.5t15 -4.5t14 -1.5t14 2.5t9 10.5t4.5 20.5q0 12 13 20t25.5 2.5t12.5 -26.5q0 -101 -86 -116q-30 -6 -62 9t-56.5 38t-62 47.5t-75.5 32.5q-14 -1 -23.5 -14t-13 -25.5t-15.5 -19t-30 4.5q0 5 -0.5 28zM272 643q7 -1 53 -5t54.5 -4.5 t55.5 -2.5t57 2q-7 54 -19 170t-20.5 188t-24.5 169t-35 171q-14 -57 -22 -112q-4 -30 -17.5 -88t-15.5 -70q-7 -39 -25 -125.5t-28.5 -155.5t-12.5 -137z" />
<glyph unicode="&#xc4;" horiz-adv-x="770" d="M49 14q0 45 35 318q1 12 2.5 33t3.5 38t6 33q18 191 35 322q10 72 39 207.5t39 199.5q30 186 63 310q9 33 28.5 83t29.5 82q32 18 81.5 15t69.5 -21q6 -5 9 -13t6.5 -23t7.5 -27q28 -88 63 -285q81 -483 101 -837q2 -39 12 -115.5t12 -100.5q2 -20 11.5 -73.5t14.5 -96.5 t1 -59q-6 -12 -52.5 -15t-84.5 9q-22 39 -33 125q-3 22 -16.5 110t-21 149t-11.5 116q-181 10 -246 8q-17 -71 -23 -154q-3 -22 -14.5 -77.5t-15.5 -84.5q-3 -18 -7 -63t-8.5 -78t-9.5 -41q-7 -11 -56.5 -9t-70.5 15zM188 1880q0 10 1.5 18.5t3 14.5t7 13t7.5 10t10 8.5 t9.5 7t11 7t10.5 5.5q52 8 79.5 -18t24 -66t-32.5 -72q-121 -43 -131 72zM272 643q7 -1 53 -5t54.5 -4.5t55.5 -2.5t57 2q-7 54 -19 170t-20.5 188t-24.5 169t-35 171q-14 -57 -22 -112q-4 -30 -17.5 -88t-15.5 -70q-7 -39 -25 -125.5t-28.5 -155.5t-12.5 -137zM444.5 1880 q-3.5 40 24.5 66t80 18q37 -22 47 -36q13 -19 12 -48q-10 -115 -131 -72q-29 32 -32.5 72z" />
<glyph unicode="&#xc5;" horiz-adv-x="770" d="M49 14q0 45 35 318q1 12 2.5 33t3.5 38t6 33q18 191 35 322q10 72 39 207.5t39 199.5q30 186 63 310q9 33 28.5 83t29.5 82q32 18 81.5 15t69.5 -21q6 -5 9 -13t6.5 -23t7.5 -27q28 -88 63 -285q81 -483 101 -837q2 -39 12 -115.5t12 -100.5q2 -20 11.5 -73.5t14.5 -96.5 t1 -59q-6 -12 -52.5 -15t-84.5 9q-22 39 -33 125q-3 22 -16.5 110t-21 149t-11.5 116q-181 10 -246 8q-17 -71 -23 -154q-3 -22 -14.5 -77.5t-15.5 -84.5q-3 -18 -7 -63t-8.5 -78t-9.5 -41q-7 -11 -56.5 -9t-70.5 15zM256 1902q1 13 7.5 28t19.5 28q4 5 10.5 12t9.5 10 l8.5 8.5t8 7t7.5 5t8 3.5t9 1.5t10 -0.5q10 -2 43.5 -0.5t44.5 -3.5q27 -8 34 -14.5t40 -59.5q15 -25 14.5 -40t-14.5 -58q-16 -48 -34 -65.5t-58 -14.5q-34 3 -72 12.5t-45 16.5q-18 18 -29.5 37t-13.5 27t-2 11q0 1 -2 8.5t-3.5 17.5t-0.5 23zM272 643q7 -1 53 -5 t54.5 -4.5t55.5 -2.5t57 2q-7 54 -19 170t-20.5 188t-24.5 169t-35 171q-14 -57 -22 -112q-4 -30 -17.5 -88t-15.5 -70q-7 -39 -25 -125.5t-28.5 -155.5t-12.5 -137zM340 1827q37 -33 83.5 -21.5t55.5 56.5q9 48 -22 71t-99 19q-79 -75 -18 -125z" />
<glyph unicode="&#xc6;" horiz-adv-x="1024" d="M8 0q-6 6 68 258q15 50 58 188t65 218q31 106 71 215q-2 31 191 555q68 186 86 204q38 4 113.5 2.5t93.5 1.5q10 -1 66 -2t105 -2t48 -2q-2 0 -2 -137q-10 6 -147.5 5t-145.5 -1q17 -88 19 -281.5t5 -246.5q28 -2 99 0.5t120 1.5t52 -12l2 -117q-213 0 -281 -8 q-17 -378 6 -684q34 -12 112.5 -9.5t125.5 8.5t59 -3q0 -10 2.5 -44t2.5 -61.5t-5 -40.5q-35 -6 -220 -5l-185 1l-6 -1q-6 -1 -13.5 -1.5t-16.5 -1t-17.5 1.5t-12.5 6q-10 83 -9.5 231.5t-2.5 249.5q-19 -2 -92 -2.5t-119 4.5q-9 -15 -15 -31.5t-12 -44t-8 -34.5 q-9 -31 -34.5 -105t-36.5 -118q-6 -22 -22 -62.5t-28.5 -69.5t-11.5 -30q-121 0 -127 6zM340 610q77 -13 186 -4q2 64 16 274t9 310h-10q-6 -14 -33 -105q-15 -50 -81 -213.5t-87 -261.5z" />
<glyph unicode="&#xc7;" horiz-adv-x="708" d="M79.5 457q-1.5 48 0.5 142t2 136q0 235 12 404q6 79 19 168q26 187 92 280q35 48 114.5 65t143.5 -14q45 -24 70 -50t45 -72q40 -97 47 -175q5 -47 3.5 -126t-10.5 -115q-24 -9 -59 -9t-59 5l-23 4q-2 14 -6.5 152t-21.5 184q-2 5 -7 20t-8 22.5t-9 18t-13 16.5 q-10 9 -21.5 8.5t-19.5 -5.5t-19.5 -13.5t-17.5 -11.5q-11 -19 -20.5 -40.5t-17 -47.5t-13 -47t-10.5 -54.5t-8 -52.5t-6.5 -58.5t-5 -56t-5 -60.5t-4.5 -58q-10 -137 0 -271q3 -48 2.5 -164.5t9 -184.5t37.5 -130q10 -23 14.5 -32.5t16.5 -28.5t25.5 -25t29.5 -2 q13 4 29 21.5t22 31.5q15 35 22.5 118t8.5 87q8 3 17 4t22.5 1t21.5 1q84 0 94 -26q10 -30 -4 -133q-6 -58 -17.5 -88t-41.5 -68q-3 -4 -17 -21.5t-19 -23t-18 -18t-23 -17.5t-25.5 -10.5t-32.5 -7.5q3 -4 11.5 -17.5t12 -19t12 -20t11.5 -21.5t9.5 -22.5t6.5 -24t3 -25 t-1 -26.5q-2 -22 -4 -36t-7 -32.5t-14.5 -29.5t-23.5 -15q-26 -7 -69 -7t-50 -1q-45 -7 -110 18t-68 57q16 48 29 56q11 7 25 7.5t32.5 -2t30.5 -1.5q8 1 27.5 -1t34.5 -1t24 8q15 15 13.5 21.5t-15 13.5t-29.5 12t-29 16.5t-14 26.5q-1 12 7.5 46t9.5 40q-33 23 -83 75 t-67 87q-27 57 -39.5 127.5t-14 118.5z" />
<glyph unicode="&#xc8;" horiz-adv-x="602" d="M96 1333q0 12 1 35t1 41.5t-2 34.5v63q-8 67 4 129q46 8 84 10.5t87.5 3t76.5 1.5q156 4 184 -17q-2 -7 0.5 -35t3.5 -47.5t-8 -29.5q-6 -4 -21.5 -4.5t-30 0.5t-27.5 0q-27 -2 -99.5 -1t-99.5 -1q9 -330 6 -537q17 -5 39.5 -5.5t60 0.5t50.5 1q15 -1 35 0t41 -1t26 -7 q6 -6 6 -97q0 -25 -4 -26q-14 -2 -56 -1.5t-107 0.5t-91 -3q-1 -68 -7 -234t-6 -236t5 -235q10 -4 124 -4t142 -10q8 -72 8 -117q1 -8 -1.5 -13t-11 -7t-14 -2.5t-18 0t-16.5 0.5q-14 0 -63 1t-72 1q-17 0 -61 2.5t-62 1.5q-4 0 -22 -0.5t-31.5 -1t-27.5 1.5t-18 6t-5 9.5 t0 12t1 7.5q0 887 -2 1087q0 184 -2 223zM172 1991q-6 6 25 8q59 5 139 -4q6 -1 10 -17.5t7 -44t5 -35.5q10 -16 20 -69t23 -78q6 -14 -86 -6q-2 0 -11 17t-25 47.5t-31 52.5q-11 17 -27.5 47t-29.5 53t-19 29z" />
<glyph unicode="&#xc9;" horiz-adv-x="602" d="M96 1333q0 12 1 35t1 41.5t-2 34.5v63q-8 67 4 129q46 8 84 10.5t87.5 3t76.5 1.5q156 4 184 -17q-2 -7 0.5 -35t3.5 -47.5t-8 -29.5q-6 -4 -21.5 -4.5t-30 0.5t-27.5 0q-27 -2 -99.5 -1t-99.5 -1q9 -330 6 -537q17 -5 39.5 -5.5t60 0.5t50.5 1q15 -1 35 0t41 -1t26 -7 q6 -6 6 -97q0 -25 -4 -26q-14 -2 -56 -1.5t-107 0.5t-91 -3q-1 -68 -7 -234t-6 -236t5 -235q10 -4 124 -4t142 -10q8 -72 8 -117q1 -8 -1.5 -13t-11 -7t-14 -2.5t-18 0t-16.5 0.5q-14 0 -63 1t-72 1q-17 0 -61 2.5t-62 1.5q-4 0 -22 -0.5t-31.5 -1t-27.5 1.5t-18 6t-5 9.5 t0 12t1 7.5q0 887 -2 1087q0 184 -2 223zM207 1757q13 25 23 78.5t20 69.5q2 8 5 35t7 43.5t10 17.5q104 12 154 3q10 -4 10 -7q-6 -6 -19 -29t-29.5 -53t-27.5 -47q-15 -22 -31 -52.5t-25 -47.5t-11 -17h-3q-90 -8 -83 6z" />
<glyph unicode="&#xca;" horiz-adv-x="602" d="M90 1792q1 15 22.5 37t46.5 40.5t27 20.5q9 9 33 35t43 44.5t35 29.5q0 4 14 -7t45.5 -36.5t53.5 -42.5q101 -80 114 -121q3 -8 -14 -24.5t-23 -16.5q-2 0 -36.5 26t-76.5 56t-59 37q-18 -14 -97 -63t-89 -52q-4 -1 -19 13.5t-20 23.5zM96 1333q0 12 1 35t1 41.5t-2 34.5 v63q-8 67 4 129q46 8 84 10.5t87.5 3t76.5 1.5q156 4 184 -17q-2 -7 0.5 -35t3.5 -47.5t-8 -29.5q-6 -4 -21.5 -4.5t-30 0.5t-27.5 0q-27 -2 -99.5 -1t-99.5 -1q9 -330 6 -537q17 -5 39.5 -5.5t60 0.5t50.5 1q15 -1 35 0t41 -1t26 -7q6 -6 6 -97q0 -25 -4 -26 q-14 -2 -56 -1.5t-107 0.5t-91 -3q-1 -68 -7 -234t-6 -236t5 -235q10 -4 124 -4t142 -10q8 -72 8 -117q1 -8 -1.5 -13t-11 -7t-14 -2.5t-18 0t-16.5 0.5q-14 0 -63 1t-72 1q-17 0 -61 2.5t-62 1.5q-4 0 -22 -0.5t-31.5 -1t-27.5 1.5t-18 6t-5 9.5t0 12t1 7.5q0 887 -2 1087 q0 184 -2 223z" />
<glyph unicode="&#xcb;" horiz-adv-x="602" d="M96 1333q0 12 1 35t1 41.5t-2 34.5v63q-8 67 4 129q46 8 84 10.5t87.5 3t76.5 1.5q156 4 184 -17q-2 -7 0.5 -35t3.5 -47.5t-8 -29.5q-6 -4 -21.5 -4.5t-30 0.5t-27.5 0q-27 -2 -99.5 -1t-99.5 -1q9 -330 6 -537q17 -5 39.5 -5.5t60 0.5t50.5 1q15 -1 35 0t41 -1t26 -7 q6 -6 6 -97q0 -25 -4 -26q-14 -2 -56 -1.5t-107 0.5t-91 -3q-1 -68 -7 -234t-6 -236t5 -235q10 -4 124 -4t142 -10q8 -72 8 -117q1 -8 -1.5 -13t-11 -7t-14 -2.5t-18 0t-16.5 0.5q-14 0 -63 1t-72 1q-17 0 -61 2.5t-62 1.5q-4 0 -22 -0.5t-31.5 -1t-27.5 1.5t-18 6t-5 9.5 t0 12t1 7.5q0 887 -2 1087q0 184 -2 223zM96 1880q0 10 1.5 18.5t3 14.5t7 13t7.5 10t10 8.5t9.5 7t11 7t10.5 5.5q52 8 79.5 -18t24 -66t-32.5 -72q-121 -43 -131 72zM352.5 1880q-3.5 40 24.5 66t80 18q37 -22 47 -36q13 -19 12 -48q-10 -115 -131 -72q-29 32 -32.5 72z " />
<glyph unicode="&#xcc;" horiz-adv-x="376" d="M49 1997q-6 6 25 8q59 5 139 -4q6 -1 10.5 -17t7.5 -43.5t5 -35.5q10 -16 20 -69.5t23 -78.5q6 -14 -86 -6q-2 0 -11.5 17t-25.5 47.5t-31 52.5q-11 17 -27.5 47t-29.5 53t-19 29zM115 1634q0 9 15.5 11t62.5 2q72 0 75 -13q4 -4 6.5 -36t4.5 -84.5t4 -79.5q2 -30 2 -179 q-1 -87 3 -426t3 -417q-2 -61 -2 -193q0 -9 0.5 -45t0.5 -62.5t-1 -56t-4 -41.5q-6 -18 -72.5 -16.5t-87.5 14.5q1 25 0.5 111t1.5 115q4 99 -1.5 324.5t-4.5 322.5q0 344 -4 438q-2 80 -2 311z" />
<glyph unicode="&#xcd;" horiz-adv-x="376" d="M115 1634q0 9 15.5 11t62.5 2q72 0 75 -13q4 -4 6.5 -36t4.5 -84.5t4 -79.5q2 -30 2 -179q-1 -87 3 -426t3 -417q-2 -61 -2 -193q0 -9 0.5 -45t0.5 -62.5t-1 -56t-4 -41.5q-6 -18 -72.5 -16.5t-87.5 14.5q1 25 0.5 111t1.5 115q4 99 -1.5 324.5t-4.5 322.5q0 344 -4 438 q-2 80 -2 311zM115 1757q13 25 23 78.5t20 69.5q2 8 5 35t7 43.5t10 17.5q104 12 154 3q10 -4 10 -7q-6 -6 -19 -29t-29.5 -53t-27.5 -47q-15 -22 -31 -52.5t-25 -47.5t-11 -17h-3q-90 -8 -83 6z" />
<glyph unicode="&#xce;" horiz-adv-x="376" d="M-29 1792q1 15 23 37t47 40.5t27 20.5q10 10 33 35t42 44t35 30q0 4 14 -7t45.5 -36.5t53.5 -42.5q102 -81 115 -121q3 -8 -14 -24.5t-23 -16.5q-2 0 -36.5 26t-76.5 56t-59 37q-18 -14 -97.5 -63t-89.5 -52q-4 -1 -19 13.5t-20 23.5zM115 1634q0 9 15.5 11t62.5 2 q72 0 75 -13q4 -4 6.5 -36t4.5 -84.5t4 -79.5q2 -30 2 -179q-1 -87 3 -426t3 -417q-2 -61 -2 -193q0 -9 0.5 -45t0.5 -62.5t-1 -56t-4 -41.5q-6 -18 -72.5 -16.5t-87.5 14.5q1 25 0.5 111t1.5 115q4 99 -1.5 324.5t-4.5 322.5q0 344 -4 438q-2 80 -2 311z" />
<glyph unicode="&#xcf;" horiz-adv-x="376" d="M-18 1880q0 9 0.5 16.5t3 14t4.5 11t7 10t7.5 8t9 7.5t8.5 6t10 5.5t9 5.5q52 8 80 -18t24.5 -66t-32.5 -72q-121 -43 -131 72zM115 1634q0 9 15.5 11t62.5 2q72 0 75 -13q4 -4 6.5 -36t4.5 -84.5t4 -79.5q2 -30 2 -179q-1 -87 3 -426t3 -417q-2 -61 -2 -193 q0 -9 0.5 -45t0.5 -62.5t-1 -56t-4 -41.5q-6 -18 -72.5 -16.5t-87.5 14.5q1 25 0.5 111t1.5 115q4 99 -1.5 324.5t-4.5 322.5q0 344 -4 438q-2 80 -2 311zM237.5 1880q-3.5 40 24.5 66t80 18q37 -22 47 -36q13 -19 12 -48q-10 -115 -131 -72q-29 32 -32.5 72z" />
<glyph unicode="&#xd0;" d="M4 800q1 21 3 41t4.5 34.5t2.5 13.5q70 4 78 4q0 359 -6 438q-13 193 8 309q6 6 30.5 5.5t29.5 -0.5q41 2 59.5 1t56.5 -6t54 -6q152 -15 251 -90q34 -26 55.5 -85t28 -132.5t9 -160t0 -167.5t0.5 -155q6 -259 0 -338q-3 -41 -3 -128.5t-6 -149.5t-26 -105 q-19 -42 -98 -98q-13 -9 -28 -15t-24.5 -8t-31.5 -6l-33 -6q-38 -7 -174 -3.5t-146 7.5q-6 3 -2 24q-3 159 -3.5 250.5t0 136.5t-0.5 181v170l-74 -4q-8 -1 -11.5 13t-2.5 35zM240 1491q8 -398 8 -600q16 0 42.5 1t40.5 1t17 -2q6 -2 4.5 -21t-0.5 -24q-1 -19 2.5 -42 t2 -31.5t-12.5 -12.5q-22 -7 -96 -2q0 -420 -4 -633q39 -16 126 -4.5t113 45.5q25 35 29 158q10 165 10 264q0 40 -1 135t-0.5 160t5.5 135q1 25 -0.5 67.5t-1.5 47.5q0 272 -82 335q-15 12 -42 20.5t-48.5 11t-59 6t-50.5 5.5q-2 -1 -2 -4t0.5 -7t-0.5 -9z" />
<glyph unicode="&#xd1;" horiz-adv-x="833" d="M61 1266q0 44 9 186q2 27 1 75t-2 74.5t1 38.5q4 8 58 8.5t81 -3.5q50 -5 52 -9l1 -4q4 -15 29.5 -83.5t25.5 -69.5q7 -28 26 -80.5t22 -61.5q55 -191 140 -534t99 -443q-1 37 5 403.5t3 412.5q-4 10 -2 117t2 132v213q30 4 58 4q79 0 80 -2q6 -13 8 -54t1.5 -85.5 t0.5 -89.5q-1 3 -1.5 -118.5t-1.5 -300.5t-2 -361t-3 -321t-4 -160q0 -1 1 -25.5t2 -50.5t1 -49.5t-2 -26.5q-5 -6 -37 -7t-65 0.5t-36 0.5q-35 -1 -53 25t-33 85q-10 40 -31.5 105.5t-31.5 105.5q-3 14 -13.5 47t-13.5 50q-80 320 -221 917q6 -162 6.5 -490.5t1.5 -385.5 q2 -49 -7 -234t-15 -215q-2 -8 -62 -8.5t-63 6.5q-13 37 -13 141q7 147 7 361q2 132 -4.5 386t-4.5 378zM189.5 1879q-0.5 23 16 54t44.5 39q55 17 106 0q19 -6 71 -49t69 -49q1 0 11.5 -3.5l15 -5t13.5 -1.5t13.5 3t9 10.5t4.5 20.5q0 12 12.5 20t25.5 2.5t13 -26.5 q0 -101 -86 -116q-30 -6 -62 9t-56.5 38t-62 47.5t-75.5 32.5q-14 -1 -23.5 -14t-13 -25.5t-15.5 -19t-30 4.5q0 5 -0.5 28z" />
<glyph unicode="&#xd2;" d="M96.5 487.5q0.5 60.5 6 187.5t6.5 148q4 361 18 484q17 161 55 237q52 100 166 105q68 3 135.5 -30t102.5 -81q56 -79 67 -244q6 -84 4.5 -244.5t1.5 -248.5q0 -223 -20 -448.5t-66 -293.5q-38 -56 -116.5 -68.5t-156.5 12t-128 69.5q-13 12 -29 45.5t-20 50.5 q-16 65 -21.5 162t-5 157.5zM245 333.5q2 -68.5 13 -102.5q12 -45 39 -69q17 -15 65.5 -28.5t67.5 -2.5q22 12 43 111q30 114 23 503q-2 217 -11 502q-4 160 -34 213q-11 21 -31.5 40t-38.5 16q-13 -1 -32.5 -21t-26.5 -35q-39 -92 -43 -305q-1 -65 -11 -273.5t-10 -246.5 q0 -1 -4 -56.5t-7.5 -116t-1.5 -129zM258 1997q-6 6 25 8q59 5 139 -4q6 -1 10 -17.5t7 -43.5t5 -35q10 -16 20 -69.5t23 -78.5q6 -14 -86 -6q-2 0 -11 17t-25 47.5t-31 52.5q-11 17 -27.5 47t-29.5 53t-19 29z" />
<glyph unicode="&#xd3;" d="M96.5 487.5q0.5 60.5 6 187.5t6.5 148q4 361 18 484q17 161 55 237q52 100 166 105q68 3 135.5 -30t102.5 -81q56 -79 67 -244q6 -84 4.5 -244.5t1.5 -248.5q0 -223 -20 -448.5t-66 -293.5q-38 -56 -116.5 -68.5t-156.5 12t-128 69.5q-13 12 -29 45.5t-20 50.5 q-16 65 -21.5 162t-5 157.5zM245 333.5q2 -68.5 13 -102.5q12 -45 39 -69q17 -15 65.5 -28.5t67.5 -2.5q22 12 43 111q30 114 23 503q-2 217 -11 502q-4 160 -34 213q-11 21 -31.5 40t-38.5 16q-13 -1 -32.5 -21t-26.5 -35q-39 -92 -43 -305q-1 -65 -11 -273.5t-10 -246.5 q0 -1 -4 -56.5t-7.5 -116t-1.5 -129zM297 1757q13 25 23 78.5t20 69.5q2 8 5 35t7 43.5t10 17.5q104 12 154 3q10 -4 10 -7q-7 -7 -35 -58.5t-40 -70.5q-15 -22 -31 -52.5t-25.5 -47.5t-11.5 -17h-3q-90 -8 -83 6z" />
<glyph unicode="&#xd4;" d="M96.5 487.5q0.5 60.5 6 187.5t6.5 148q4 361 18 484q17 161 55 237q52 100 166 105q68 3 135.5 -30t102.5 -81q56 -79 67 -244q6 -84 4.5 -244.5t1.5 -248.5q0 -223 -20 -448.5t-66 -293.5q-38 -56 -116.5 -68.5t-156.5 12t-128 69.5q-13 12 -29 45.5t-20 50.5 q-16 65 -21.5 162t-5 157.5zM164 1792q1 15 22.5 37t46.5 40.5t27 20.5q9 9 33 35t43 44.5t35 29.5q0 4 14 -7t45 -36.5t53 -42.5q102 -81 115 -121q3 -8 -14 -24.5t-23 -16.5q-2 0 -36.5 26t-76.5 56t-59 37q-18 -14 -97 -63t-89 -52q-4 -1 -19 13.5t-20 23.5zM245 333.5 q2 -68.5 13 -102.5q12 -45 39 -69q17 -15 65.5 -28.5t67.5 -2.5q22 12 43 111q30 114 23 503q-2 217 -11 502q-4 160 -34 213q-11 21 -31.5 40t-38.5 16q-13 -1 -32.5 -21t-26.5 -35q-39 -92 -43 -305q-1 -65 -11 -273.5t-10 -246.5q0 -1 -4 -56.5t-7.5 -116t-1.5 -129z" />
<glyph unicode="&#xd5;" d="M96.5 487.5q0.5 60.5 6 187.5t6.5 148q4 361 18 484q17 161 55 237q52 100 166 105q68 3 135.5 -30t102.5 -81q56 -79 67 -244q6 -84 4.5 -244.5t1.5 -248.5q0 -223 -20 -448.5t-66 -293.5q-38 -56 -116.5 -68.5t-156.5 12t-128 69.5q-13 12 -29 45.5t-20 50.5 q-16 65 -21.5 162t-5 157.5zM185.5 1879q-0.5 23 16 54t44.5 39q55 17 106 0q19 -6 71 -49t69 -49q1 0 11.5 -3.5l15 -5t13.5 -1.5t13.5 3t9 10.5t4.5 20.5q0 12 12.5 20t25.5 2.5t13 -26.5q0 -101 -86 -116q-30 -6 -62 9t-56.5 38t-62 47.5t-75.5 32.5q-14 -1 -23.5 -14 t-13 -25.5t-15.5 -19t-30 4.5q0 5 -0.5 28zM245 333.5q2 -68.5 13 -102.5q12 -45 39 -69q17 -15 65.5 -28.5t67.5 -2.5q22 12 43 111q30 114 23 503q-2 217 -11 502q-4 160 -34 213q-11 21 -31.5 40t-38.5 16q-13 -1 -32.5 -21t-26.5 -35q-39 -92 -43 -305 q-1 -65 -11 -273.5t-10 -246.5q0 -1 -4 -56.5t-7.5 -116t-1.5 -129z" />
<glyph unicode="&#xd6;" d="M96.5 487.5q0.5 60.5 6 187.5t6.5 148q4 361 18 484q17 161 55 237q52 100 166 105q68 3 135.5 -30t102.5 -81q56 -79 67 -244q6 -84 4.5 -244.5t1.5 -248.5q0 -223 -20 -448.5t-66 -293.5q-38 -56 -116.5 -68.5t-156.5 12t-128 69.5q-13 12 -29 45.5t-20 50.5 q-16 65 -21.5 162t-5 157.5zM176 1880q0 10 1.5 18.5t3 14.5t7 13t7.5 10t10 8.5t9.5 7t11 7t10.5 5.5q52 8 79.5 -18t24 -66t-32.5 -72q-121 -43 -131 72zM245 333.5q2 -68.5 13 -102.5q12 -45 39 -69q17 -15 65.5 -28.5t67.5 -2.5q22 12 43 111q30 114 23 503 q-2 217 -11 502q-4 160 -34 213q-11 21 -31.5 40t-38.5 16q-13 -1 -32.5 -21t-26.5 -35q-39 -92 -43 -305q-1 -65 -11 -273.5t-10 -246.5q0 -1 -4 -56.5t-7.5 -116t-1.5 -129zM432.5 1880q-3.5 40 24.5 66t80 18q37 -22 47 -36q13 -19 12 -48q-10 -115 -131 -72 q-29 32 -32.5 72z" />
<glyph unicode="&#xd8;" d="M96.5 487.5q0.5 60.5 6 187.5t6.5 148q4 361 18 484q17 161 55 237q52 100 166 105q62 3 135 -31l17 98q12 2 38.5 1t30.5 -5q0 -9 -22 -135q17 -13 39 -39q56 -79 67 -244q6 -84 4.5 -244.5t1.5 -248.5q0 -223 -20 -448.5t-66 -293.5q-27 -39 -76 -57t-102.5 -15 t-107.5 21l-17 -69q-44 -8 -77 0q2 7 7 24t10 36t9 38q-27 15 -47 35q-13 12 -29 45.5t-20 50.5q-16 65 -21.5 162t-5 157.5zM245 333.5q2 -68.5 13 -102.5v-4q38 199 78.5 439t52.5 342q6 67 66 440l-4 12q-11 21 -31.5 40t-38.5 16q-13 -1 -32.5 -21t-26.5 -35 q-39 -92 -43 -305q-1 -65 -11 -273.5t-10 -246.5q0 -1 -4 -56.5t-7.5 -116t-1.5 -129zM315 150q29 -14 61 -20.5t54 1.5q22 12 43 111q30 114 23 503q-2 211 -9 463q-60 -379 -67 -473q-10 -86 -105 -585z" />
<glyph unicode="&#xd9;" horiz-adv-x="780" d="M113 672q3 84 0 262.5t4 261.5q1 16 3 76.5t3 77.5q1 14 0.5 58t1.5 65q2 17 3 59.5t2.5 73t4.5 32.5q5 3 35.5 7.5t67.5 1.5t49 -19q-13 -496 -13 -741q0 -47 -2.5 -171t-2 -189.5t11 -160t32.5 -165.5q20 -64 70 -70q20 -1 48.5 12t37.5 27q4 6 7.5 15t6 16.5t4.5 20.5 t3.5 21t3 23.5t1.5 22t1.5 24.5t1.5 23q4 108 8 288.5t6 254.5q2 91 2 548q1 25 -1 78t-1.5 86.5t4.5 36.5q23 13 63 14.5t70.5 -6t30.5 -16.5q0 -14 3 -96.5t3 -100.5q-4 -125 0 -393q0 -44 -3 -131.5t-3 -130.5q0 -182 -4 -262q-6 -192 -23 -299q-8 -44 -18.5 -71.5 t-32.5 -55.5q-58 -68 -192 -96q-45 -8 -114 27t-99 69q-33 40 -47 72q-18 46 -25 127q-16 146 -12 393zM258 1997q-6 6 25 8q59 5 139 -4q6 -1 10 -17.5t7 -43.5t5 -35q10 -16 20 -69.5t23 -78.5q6 -14 -86 -6q-2 0 -11 17t-25 47.5t-31 52.5q-11 17 -27.5 47t-29.5 53 t-19 29z" />
<glyph unicode="&#xda;" horiz-adv-x="780" d="M113 672q3 84 0 262.5t4 261.5q1 16 3 76.5t3 77.5q1 14 0.5 58t1.5 65q2 17 3 59.5t2.5 73t4.5 32.5q5 3 35.5 7.5t67.5 1.5t49 -19q-13 -496 -13 -741q0 -47 -2.5 -171t-2 -189.5t11 -160t32.5 -165.5q20 -64 70 -70q20 -1 48.5 12t37.5 27q4 6 7.5 15t6 16.5t4.5 20.5 t3.5 21t3 23.5t1.5 22t1.5 24.5t1.5 23q4 108 8 288.5t6 254.5q2 91 2 548q1 25 -1 78t-1.5 86.5t4.5 36.5q23 13 63 14.5t70.5 -6t30.5 -16.5q0 -14 3 -96.5t3 -100.5q-4 -125 0 -393q0 -44 -3 -131.5t-3 -130.5q0 -182 -4 -262q-6 -192 -23 -299q-8 -44 -18.5 -71.5 t-32.5 -55.5q-58 -68 -192 -96q-45 -8 -114 27t-99 69q-33 40 -47 72q-18 46 -25 127q-16 146 -12 393zM322 1757q13 25 23 78.5t20 69.5q2 8 5 35t7 43.5t10 17.5q104 12 154 3q10 -4 10 -7q-6 -6 -19 -29t-29.5 -53t-27.5 -47q-15 -22 -31 -52.5t-25 -47.5t-11 -17h-3 q-90 -8 -83 6z" />
<glyph unicode="&#xdb;" horiz-adv-x="780" d="M113 672q3 84 0 262.5t4 261.5q1 16 3 76.5t3 77.5q1 14 0.5 58t1.5 65q2 17 3 59.5t2.5 73t4.5 32.5q5 3 35.5 7.5t67.5 1.5t49 -19q-13 -496 -13 -741q0 -47 -2.5 -171t-2 -189.5t11 -160t32.5 -165.5q20 -64 70 -70q20 -1 48.5 12t37.5 27q4 6 7.5 15t6 16.5t4.5 20.5 t3.5 21t3 23.5t1.5 22t1.5 24.5t1.5 23q4 108 8 288.5t6 254.5q2 91 2 548q1 25 -1 78t-1.5 86.5t4.5 36.5q23 13 63 14.5t70.5 -6t30.5 -16.5q0 -14 3 -96.5t3 -100.5q-4 -125 0 -393q0 -44 -3 -131.5t-3 -130.5q0 -182 -4 -262q-6 -192 -23 -299q-8 -44 -18.5 -71.5 t-32.5 -55.5q-58 -68 -192 -96q-45 -8 -114 27t-99 69q-33 40 -47 72q-18 46 -25 127q-16 146 -12 393zM195 1792q1 15 22.5 37t46.5 40.5t27 20.5q10 10 33 35t42 44t35 30q0 4 14 -7t45.5 -36.5t53.5 -42.5q102 -81 115 -121q3 -8 -14 -24.5t-23 -16.5q-2 0 -36.5 26 t-76.5 56t-59 37q-18 -14 -97.5 -63t-89.5 -52q-4 -1 -18.5 13t-19.5 24z" />
<glyph unicode="&#xdc;" horiz-adv-x="780" d="M113 672q3 84 0 262.5t4 261.5q1 16 3 76.5t3 77.5q1 14 0.5 58t1.5 65q2 17 3 59.5t2.5 73t4.5 32.5q5 3 35.5 7.5t67.5 1.5t49 -19q-13 -496 -13 -741q0 -47 -2.5 -171t-2 -189.5t11 -160t32.5 -165.5q20 -64 70 -70q20 -1 48.5 12t37.5 27q4 6 7.5 15t6 16.5t4.5 20.5 t3.5 21t3 23.5t1.5 22t1.5 24.5t1.5 23q4 108 8 288.5t6 254.5q2 91 2 548q1 25 -1 78t-1.5 86.5t4.5 36.5q23 13 63 14.5t70.5 -6t30.5 -16.5q0 -14 3 -96.5t3 -100.5q-4 -125 0 -393q0 -44 -3 -131.5t-3 -130.5q0 -182 -4 -262q-6 -192 -23 -299q-8 -44 -18.5 -71.5 t-32.5 -55.5q-58 -68 -192 -96q-45 -8 -114 27t-99 69q-33 40 -47 72q-18 46 -25 127q-16 146 -12 393zM193 1880q0 9 0.5 16.5t3 14t4.5 11t7 10t7.5 8t9 7.5t8.5 6t10 5.5t9 5.5q52 8 80 -18t24.5 -66t-32.5 -72q-121 -43 -131 72zM448.5 1880q-3.5 40 24.5 66t80 18 q37 -22 47 -36q13 -19 12 -48q-10 -115 -131 -72q-29 32 -32.5 72z" />
<glyph unicode="&#xdd;" horiz-adv-x="692" d="M6 1626q3 6 75.5 5.5t76.5 -7.5q8 -13 22 -72t19 -73q24 -82 46 -175.5t48.5 -212.5t42.5 -184q1 0 12 33.5t25.5 80t21.5 75.5q13 52 49.5 216t42.5 199q7 8 20 60.5t17 60.5q45 10 98 9.5t60 -7.5q-4 -18 -21.5 -95t-23.5 -112q-2 -19 -12.5 -53t-16.5 -59 q-20 -62 -46 -188t-38 -160q-8 -23 -30 -100t-42.5 -135.5t-39.5 -94.5q-6 -87 -5.5 -218.5t-0.5 -172.5q0 -28 3.5 -78.5t3.5 -90t-7 -73.5q-4 -9 -45.5 -11t-81 1.5t-39.5 7.5q0 11 -1 64.5t-1 72.5q-12 180 -7 291q1 48 0 151v56q-24 162 -38 211q-8 30 -113 463 q-13 61 -39 153q-38 156 -35 162zM295 1757q13 25 23 78.5t20 69.5q2 8 5 35t7 43.5t10 17.5q104 12 154 3q10 -4 10 -7q-7 -7 -35 -58.5t-40 -70.5q-15 -22 -31 -52.5t-25.5 -47.5t-11.5 -17h-3q-90 -8 -83 6z" />
<glyph unicode="&#xdf;" horiz-adv-x="1024" d="M102.5 1554q0.5 42 3.5 78q2 29 205 13q71 -6 149 -38t113 -73q69 -77 90.5 -212.5t2.5 -297.5q-1 -5 -5 -30t-6 -33.5t-7 -30.5t-9 -32t-12 -27t-17 -26.5t-21.5 -19t-27.5 -14.5q88 -29 112 -135q0 -2 0.5 -3.5t0.5 -2.5q62 -209 -41 -512q-19 -55 -101 -129 q-25 -21 -70 -27t-122 -6q-6 23 11.5 38t44.5 22.5t60.5 25t51.5 43.5q7 10 10 43.5t4.5 74t3.5 54.5q8 40 12 64.5t10 65.5t7 68.5t1.5 63t-6.5 60t-17 49t-28.5 40.5t-43.5 25q-77 21 -86 39q0 25 22 48.5t54.5 44.5t33.5 22q42 34 51 143.5t-14.5 228.5t-66.5 183 q-17 25 -33 35q-55 39 -162 45q-3 -1 -2 -9q0 -114 3 -318t3 -298q-2 -6 -1 -42t2.5 -78.5t0.5 -43.5q1 -34 -0.5 -91.5t-1.5 -72.5v-278t-4 -346q-94 4 -104 4q-37 0 -41 4q3 34 0 365.5t-7 682t-4 371.5q0 22 -1 81t-0.5 101z" />
<glyph unicode="&#xe0;" horiz-adv-x="770" d="M49 14q0 45 35 318q1 12 2.5 33t3.5 38t6 33q18 191 35 322q10 72 39 207.5t39 199.5q30 186 63 310q9 33 28.5 83t29.5 82q32 18 81.5 15t69.5 -21q6 -5 9 -13t6.5 -23t7.5 -27q28 -88 63 -285q62 -372 86 -643v-8q1 -2 40 -1t40 -1q2 -3 2.5 -23.5t0 -43t-1.5 -44 t-1 -22.5q0 -6 -34.5 -4.5t-34.5 0.5q0 -5 5 -52.5t12.5 -114t10.5 -96.5q2 -20 11.5 -73.5t14.5 -96.5t1 -59q-6 -12 -52.5 -15t-84.5 9q-22 39 -33 125q-3 22 -16.5 110t-21 149t-11.5 116q-181 10 -246 8q-17 -71 -23 -154q-3 -22 -14.5 -77.5t-15.5 -84.5q-3 -18 -7 -63 t-8.5 -78t-9.5 -41q-7 -11 -56.5 -9t-70.5 15zM242 1997q-6 6 25 8q59 5 139 -4q6 -1 10 -17.5t7 -43.5t5 -35q10 -16 20 -69.5t23 -78.5q6 -14 -86 -6q-2 0 -11.5 17t-25.5 47.5t-31 52.5q-12 19 -40 70.5t-35 58.5zM272 637q47 -4 131.5 -5t88.5 1q-7 54 -19 170 t-20.5 188t-24.5 169t-35 171q-14 -57 -22 -112q-4 -30 -17.5 -88t-15.5 -70q-6 -37 -24.5 -126.5t-29 -159.5t-12.5 -138z" />
<glyph unicode="&#xe1;" horiz-adv-x="770" d="M49 14q0 45 35 318q1 12 2.5 33t3.5 38t6 33q18 191 35 322q10 72 39 207.5t39 199.5q30 186 63 310q9 33 28.5 83t29.5 82q32 18 81.5 15t69.5 -21q6 -5 9 -13t6.5 -23t7.5 -27q28 -88 63 -285q62 -372 86 -643v-8q1 -2 40 -1t40 -1q2 -3 2.5 -23.5t0 -43t-1.5 -44 t-1 -22.5q0 -6 -34.5 -4.5t-34.5 0.5q0 -5 5 -52.5t12.5 -114t10.5 -96.5q2 -20 11.5 -73.5t14.5 -96.5t1 -59q-6 -12 -52.5 -15t-84.5 9q-22 39 -33 125q-3 22 -16.5 110t-21 149t-11.5 116q-181 10 -246 8q-17 -71 -23 -154q-3 -22 -14.5 -77.5t-15.5 -84.5q-3 -18 -7 -63 t-8.5 -78t-9.5 -41q-7 -11 -56.5 -9t-70.5 15zM272 637q47 -4 131.5 -5t88.5 1q-7 54 -19 170t-20.5 188t-24.5 169t-35 171q-14 -57 -22 -112q-4 -30 -17.5 -88t-15.5 -70q-6 -37 -24.5 -126.5t-29 -159.5t-12.5 -138zM326 1757q13 25 23 78.5t20 69.5q2 8 5 35t7 43.5 t10 17.5q104 12 154 3q10 -4 10 -7q-6 -6 -19 -29t-29.5 -53t-27.5 -47q-15 -22 -31 -52.5t-25 -47.5t-11 -17h-3q-90 -8 -83 6z" />
<glyph unicode="&#xe2;" horiz-adv-x="770" d="M49 14q0 45 35 318q1 12 2.5 33t3.5 38t6 33q18 191 35 322q10 72 39 207.5t39 199.5q30 186 63 310q9 33 28.5 83t29.5 82q32 18 81.5 15t69.5 -21q6 -5 9 -13t6.5 -23t7.5 -27q28 -88 63 -285q62 -372 86 -643v-8q1 -2 40 -1t40 -1q2 -3 2.5 -23.5t0 -43t-1.5 -44 t-1 -22.5q0 -6 -34.5 -4.5t-34.5 0.5q0 -5 5 -52.5t12.5 -114t10.5 -96.5q2 -20 11.5 -73.5t14.5 -96.5t1 -59q-6 -12 -52.5 -15t-84.5 9q-22 39 -33 125q-3 22 -16.5 110t-21 149t-11.5 116q-181 10 -246 8q-17 -71 -23 -154q-3 -22 -14.5 -77.5t-15.5 -84.5q-3 -18 -7 -63 t-8.5 -78t-9.5 -41q-7 -11 -56.5 -9t-70.5 15zM178 1792q1 15 22.5 37t46.5 40.5t27 20.5q9 9 33 35t43 44.5t35 29.5q0 4 14 -7t45.5 -36.5t53.5 -42.5q101 -80 114 -121q3 -8 -14 -24.5t-23 -16.5q-2 0 -36.5 26t-76.5 56t-59 37q-18 -14 -97 -63t-89 -52q-4 -1 -19 13.5 t-20 23.5zM272 643q7 -1 53 -5t54.5 -4.5t55.5 -2.5t57 2q-7 54 -19 170t-20.5 188t-24.5 169t-35 171q-14 -57 -22 -112q-4 -30 -17.5 -88t-15.5 -70q-7 -39 -25 -125.5t-28.5 -155.5t-12.5 -137z" />
<glyph unicode="&#xe3;" horiz-adv-x="770" d="M49 14q0 45 35 318q1 12 2.5 33t3.5 38t6 33q18 191 35 322q10 72 39 207.5t39 199.5q30 186 63 310q9 33 28.5 83t29.5 82q32 18 81.5 15t69.5 -21q6 -5 9 -13t6.5 -23t7.5 -27q28 -88 63 -285q62 -372 86 -643v-8q1 -2 40 -1t40 -1q2 -3 2.5 -23.5t0 -43t-1.5 -44 t-1 -22.5q0 -6 -34.5 -4.5t-34.5 0.5q0 -5 5 -52.5t12.5 -114t10.5 -96.5q2 -20 11.5 -73.5t14.5 -96.5t1 -59q-6 -12 -52.5 -15t-84.5 9q-22 39 -33 125q-3 22 -16.5 110t-21 149t-11.5 116q-181 10 -246 8q-17 -71 -23 -154q-3 -22 -14.5 -77.5t-15.5 -84.5q-3 -18 -7 -63 t-8.5 -78t-9.5 -41q-7 -11 -56.5 -9t-70.5 15zM204.5 1879q-0.5 23 15.5 54t44 39q55 17 107 0q19 -6 70.5 -49t68.5 -49q1 0 11.5 -3.5t15 -4.5t14 -1.5t14 2.5t9 10.5t4.5 20.5q0 12 13 20t25.5 2.5t12.5 -26.5q0 -101 -86 -116q-30 -6 -62 9t-56.5 38t-62 47.5 t-75.5 32.5q-14 -1 -23.5 -14t-13 -25.5t-15.5 -19t-30 4.5q0 5 -0.5 28zM272 637q47 -4 131.5 -5t88.5 1q-7 54 -19 170t-20.5 188t-24.5 169t-35 171q-14 -57 -22 -112q-4 -30 -17.5 -88t-15.5 -70q-6 -37 -24.5 -126.5t-29 -159.5t-12.5 -138z" />
<glyph unicode="&#xe4;" horiz-adv-x="770" d="M49 14q0 45 35 318q1 12 2.5 33t3.5 38t6 33q18 191 35 322q10 72 39 207.5t39 199.5q30 186 63 310q9 33 28.5 83t29.5 82q32 18 81.5 15t69.5 -21q6 -5 9 -13t6.5 -23t7.5 -27q28 -88 63 -285q62 -372 86 -643v-8q1 -2 40 -1t40 -1q2 -3 2.5 -23.5t0 -43t-1.5 -44 t-1 -22.5q0 -6 -34.5 -4.5t-34.5 0.5q0 -5 5 -52.5t12.5 -114t10.5 -96.5q2 -20 11.5 -73.5t14.5 -96.5t1 -59q-6 -12 -52.5 -15t-84.5 9q-22 39 -33 125q-3 22 -16.5 110t-21 149t-11.5 116q-181 10 -246 8q-17 -71 -23 -154q-3 -22 -14.5 -77.5t-15.5 -84.5q-3 -18 -7 -63 t-8.5 -78t-9.5 -41q-7 -11 -56.5 -9t-70.5 15zM188 1880q0 10 1.5 18.5t3 14.5t7 13t7.5 10t10 8.5t9.5 7t11 7t10.5 5.5q52 8 79.5 -18t24 -66t-32.5 -72q-121 -43 -131 72zM272 637q47 -4 131.5 -5t88.5 1q-7 54 -19 170t-20.5 188t-24.5 169t-35 171q-14 -57 -22 -112 q-4 -30 -17.5 -88t-15.5 -70q-6 -37 -24.5 -126.5t-29 -159.5t-12.5 -138zM444.5 1880q-3.5 40 24.5 66t80 18q37 -22 47 -36q13 -19 12 -48q-10 -115 -131 -72q-29 32 -32.5 72z" />
<glyph unicode="&#xe5;" horiz-adv-x="770" d="M49 14q0 45 35 318q1 12 2.5 33t3.5 38t6 33q18 191 35 322q10 72 39 207.5t39 199.5q30 186 63 310q9 33 28.5 83t29.5 82q32 18 81.5 15t69.5 -21q6 -5 9 -13t6.5 -23t7.5 -27q28 -88 63 -285q81 -483 101 -837q2 -39 12 -115.5t12 -100.5q2 -20 11.5 -73.5t14.5 -96.5 t1 -59q-6 -12 -52.5 -15t-84.5 9q-22 39 -33 125q-3 22 -16.5 110t-21 149t-11.5 116q-181 10 -246 8q-17 -71 -23 -154q-3 -22 -14.5 -77.5t-15.5 -84.5q-3 -18 -7 -63t-8.5 -78t-9.5 -41q-7 -11 -56.5 -9t-70.5 15zM256 1902q1 13 7.5 28t19.5 28q4 5 10.5 12t9.5 10 l8.5 8.5t8 7t7.5 5t8 3.5t9 1.5t10 -0.5q10 -2 43.5 -0.5t44.5 -3.5q27 -8 34 -14.5t40 -59.5q15 -25 14.5 -40t-14.5 -58q-16 -48 -34 -65.5t-58 -14.5q-34 3 -72 12.5t-45 16.5q-18 18 -29.5 37t-13.5 27t-2 11q0 1 -2 8.5t-3.5 17.5t-0.5 23zM272 643q7 -1 53 -5 t54.5 -4.5t55.5 -2.5t57 2q-7 54 -19 170t-20.5 188t-24.5 169t-35 171q-14 -57 -22 -112q-4 -30 -17.5 -88t-15.5 -70q-7 -39 -25 -125.5t-28.5 -155.5t-12.5 -137zM340 1827q37 -33 83.5 -21.5t55.5 56.5q9 48 -22 71t-99 19q-79 -75 -18 -125z" />
<glyph unicode="&#xe6;" horiz-adv-x="1024" d="M8 0q-6 6 68 258q15 50 58 188t65 218q31 106 71 215q-2 31 191 555q68 186 86 204q38 4 113.5 2.5t93.5 1.5q10 -1 66 -2t105 -2t48 -2q-2 0 -2 -137q-10 6 -147.5 5t-145.5 -1q17 -88 19 -281.5t5 -246.5q28 -2 99 0.5t120 1.5t52 -12l2 -117q-213 0 -281 -8 q-17 -378 6 -684q34 -12 112.5 -9.5t125.5 8.5t59 -3q0 -10 2.5 -44t2.5 -61.5t-5 -40.5q-35 -6 -220 -5l-185 1l-6 -1q-6 -1 -13.5 -1.5t-16.5 -1t-17.5 1.5t-12.5 6q-10 83 -9.5 231.5t-2.5 249.5q-19 -2 -92 -2.5t-119 4.5q-9 -15 -15 -31.5t-12 -44t-8 -34.5 q-9 -31 -34.5 -105t-36.5 -118q-6 -22 -22 -62.5t-28.5 -69.5t-11.5 -30q-121 0 -127 6zM340 610q77 -13 186 -4q2 64 16 274t9 310h-10q-6 -14 -33 -105q-15 -50 -81 -213.5t-87 -261.5z" />
<glyph unicode="&#xe7;" horiz-adv-x="708" d="M79.5 457q-1.5 48 0.5 142t2 136q0 235 12 404q6 79 19 168q26 187 92 280q35 48 114.5 65t143.5 -14q45 -24 70 -50t45 -72q40 -97 47 -175q5 -47 3.5 -126t-10.5 -115q-24 -9 -59 -9t-59 5l-23 4q-2 14 -6.5 152t-21.5 184q-2 5 -7 20t-8 22.5t-9 18t-13 16.5 q-10 9 -21.5 8.5t-19.5 -5.5t-19.5 -13.5t-17.5 -11.5q-11 -19 -20.5 -40.5t-17 -47.5t-13 -47t-10.5 -54.5t-8 -52.5t-6.5 -58.5t-5 -56t-5 -60.5t-4.5 -58q-10 -137 0 -271q3 -48 2.5 -164.5t9 -184.5t37.5 -130q10 -23 14.5 -32.5t16.5 -28.5t25.5 -25t29.5 -2 q13 4 29 21.5t22 31.5q15 35 22.5 118t8.5 87q8 3 17 4t22.5 1t21.5 1q84 0 94 -26q10 -30 -4 -133q-6 -58 -17.5 -88t-41.5 -68q-3 -4 -17 -21.5t-19 -23t-18 -18t-23 -17.5t-25.5 -10.5t-32.5 -7.5q3 -4 11.5 -17.5t12 -19t12 -20t11.5 -21.5t9.5 -22.5t6.5 -24t3 -25 t-1 -26.5q-2 -22 -4 -36t-7 -32.5t-14.5 -29.5t-23.5 -15q-26 -7 -69 -7t-50 -1q-45 -7 -110 18t-68 57q16 48 29 56q11 7 25 7.5t32.5 -2t30.5 -1.5q8 1 27.5 -1t34.5 -1t24 8q15 15 13.5 21.5t-15 13.5t-29.5 12t-29 16.5t-14 26.5q-1 12 7.5 46t9.5 40q-33 23 -83 75 t-67 87q-27 57 -39.5 127.5t-14 118.5z" />
<glyph unicode="&#xe8;" horiz-adv-x="602" d="M96 1333q0 12 1 35t1 41.5t-2 34.5v63q-8 67 4 129q46 8 84 10.5t87.5 3t76.5 1.5q156 4 184 -17q-2 -7 0.5 -35t3.5 -47.5t-8 -29.5q-6 -4 -21.5 -4.5t-30 0.5t-27.5 0q-27 -2 -99.5 -1t-99.5 -1q9 -330 6 -537q17 -5 39.5 -5.5t60 0.5t50.5 1q15 -1 35 0t41 -1t26 -7 q6 -6 6 -97q0 -25 -4 -26q-14 -2 -56 -1.5t-107 0.5t-91 -3q-1 -85 -6.5 -173t-6.5 -123.5t5 -174.5q10 -4 124 -4.5t142 -10.5q8 -72 8 -116q1 -6 -0.5 -10.5t-5.5 -7t-8 -4t-10.5 -1.5t-11.5 -0.5t-13 0t-12 0.5q-14 0 -63 1t-72 1q-17 0 -61 2.5t-62 1.5q-4 0 -22 -0.5 t-31.5 -1t-27.5 1.5t-18 6t-5 9.5t0 12t1 7.5q0 654 -2 854q0 184 -2 223zM126.5 112.5q1.5 8.5 12.5 12.5q12 4 29 4.5t39 -1t29 -1.5q16 0 110.5 3t142.5 3q2 0 3 -14t0.5 -35t-1 -40.5t-1.5 -34t-1 -13.5q-102 -7 -225 -2q-19 1 -53 -0.5t-50 -2t-26 2.5q-6 2 -4.5 21 t0.5 24q1 19 -2.5 42t-2 31.5zM172 1991q-6 6 25 8q59 5 139 -4q6 -1 10 -17.5t7 -44t5 -35.5q10 -16 20 -69t23 -78q6 -14 -86 -6q-2 0 -11 17t-25 47.5t-31 52.5q-11 17 -27.5 47t-29.5 53t-19 29z" />
<glyph unicode="&#xe9;" horiz-adv-x="602" d="M96 1333q0 12 1 35t1 41.5t-2 34.5v63q-8 67 4 129q46 8 84 10.5t87.5 3t76.5 1.5q156 4 184 -17q-2 -7 0.5 -35t3.5 -47.5t-8 -29.5q-6 -4 -21.5 -4.5t-30 0.5t-27.5 0q-27 -2 -99.5 -1t-99.5 -1q9 -330 6 -537q17 -5 39.5 -5.5t60 0.5t50.5 1q15 -1 35 0t41 -1t26 -7 q6 -6 6 -97q0 -25 -4 -26q-14 -2 -56 -1.5t-107 0.5t-91 -3q-1 -85 -6.5 -173t-6.5 -123.5t5 -174.5q10 -4 124 -4.5t142 -10.5q8 -72 8 -116q1 -6 -0.5 -10.5t-5.5 -7t-8 -4t-10.5 -1.5t-11.5 -0.5t-13 0t-12 0.5q-14 0 -63 1t-72 1q-17 0 -61 2.5t-62 1.5q-4 0 -22 -0.5 t-31.5 -1t-27.5 1.5t-18 6t-5 9.5t0 12t1 7.5q0 654 -2 854q0 184 -2 223zM126.5 112.5q1.5 8.5 12.5 12.5q12 4 29 4.5t39 -1t29 -1.5q16 0 110.5 3t142.5 3q2 0 3 -14t0.5 -35t-1 -40.5t-1.5 -34t-1 -13.5q-102 -7 -225 -2q-19 1 -53 -0.5t-50 -2t-26 2.5q-6 2 -4.5 21 t0.5 24q1 19 -2.5 42t-2 31.5zM207 1757q13 25 23 78.5t20 69.5q2 8 5 35t7 43.5t10 17.5q104 12 154 3q10 -4 10 -7q-6 -6 -19 -29t-29.5 -53t-27.5 -47q-15 -22 -31 -52.5t-25 -47.5t-11 -17h-3q-90 -8 -83 6z" />
<glyph unicode="&#xea;" horiz-adv-x="602" d="M90 1792q1 15 22.5 37t46.5 40.5t27 20.5q9 9 33 35t43 44.5t35 29.5q0 4 14 -7t45.5 -36.5t53.5 -42.5q101 -80 114 -121q3 -8 -14 -24.5t-23 -16.5q-2 0 -36.5 26t-76.5 56t-59 37q-18 -14 -97 -63t-89 -52q-4 -1 -19 13.5t-20 23.5zM96 1333q0 12 1 35t1 41.5t-2 34.5 v63q-8 67 4 129q46 8 84 10.5t87.5 3t76.5 1.5q156 4 184 -17q-2 -7 0.5 -35t3.5 -47.5t-8 -29.5q-6 -4 -21.5 -4.5t-30 0.5t-27.5 0q-27 -2 -99.5 -1t-99.5 -1q9 -330 6 -537q17 -5 39.5 -5.5t60 0.5t50.5 1q15 -1 35 0t41 -1t26 -7q6 -6 6 -97q0 -25 -4 -26 q-14 -2 -56 -1.5t-107 0.5t-91 -3q-1 -85 -6.5 -173t-6.5 -123.5t5 -174.5q10 -4 124 -4.5t142 -10.5q8 -72 8 -116q1 -6 -0.5 -10.5t-5.5 -7t-8 -4t-10.5 -1.5t-11.5 -0.5t-13 0t-12 0.5q-14 0 -63 1t-72 1q-17 0 -61 2.5t-62 1.5q-4 0 -22 -0.5t-31.5 -1t-27.5 1.5t-18 6 t-5 9.5t0 12t1 7.5q0 654 -2 854q0 184 -2 223zM126.5 112.5q1.5 8.5 12.5 12.5q12 4 29 4.5t39 -1t29 -1.5q16 0 110.5 3t142.5 3q2 0 3 -14t0.5 -35t-1 -40.5t-1.5 -34t-1 -13.5q-102 -7 -225 -2q-19 1 -53 -0.5t-50 -2t-26 2.5q-6 2 -4.5 21t0.5 24q1 19 -2.5 42t-2 31.5 z" />
<glyph unicode="&#xeb;" horiz-adv-x="602" d="M96 1333q0 12 1 35t1 41.5t-2 34.5v63q-8 67 4 129q46 8 84 10.5t87.5 3t76.5 1.5q156 4 184 -17q-2 -7 0.5 -35t3.5 -47.5t-8 -29.5q-6 -4 -21.5 -4.5t-30 0.5t-27.5 0q-27 -2 -99.5 -1t-99.5 -1q9 -330 6 -537q17 -5 39.5 -5.5t60 0.5t50.5 1q15 -1 35 0t41 -1t26 -7 q6 -6 6 -97q0 -25 -4 -26q-14 -2 -56 -1.5t-107 0.5t-91 -3q-1 -85 -6.5 -173t-6.5 -123.5t5 -174.5q10 -4 124 -4.5t142 -10.5q8 -72 8 -116q1 -6 -0.5 -10.5t-5.5 -7t-8 -4t-10.5 -1.5t-11.5 -0.5t-13 0t-12 0.5q-14 0 -63 1t-72 1q-17 0 -61 2.5t-62 1.5q-4 0 -22 -0.5 t-31.5 -1t-27.5 1.5t-18 6t-5 9.5t0 12t1 7.5q0 654 -2 854q0 184 -2 223zM96 1880q0 10 1.5 18.5t3 14.5t7 13t7.5 10t10 8.5t9.5 7t11 7t10.5 5.5q52 8 79.5 -18t24 -66t-32.5 -72q-121 -43 -131 72zM126.5 112.5q1.5 8.5 12.5 12.5q12 4 29 4.5t39 -1t29 -1.5 q16 0 110.5 3t142.5 3q2 0 3 -14t0.5 -35t-1 -40.5t-1.5 -34t-1 -13.5q-102 -7 -225 -2q-19 1 -53 -0.5t-50 -2t-26 2.5q-6 2 -4.5 21t0.5 24q1 19 -2.5 42t-2 31.5zM352.5 1880q-3.5 40 24.5 66t80 18q37 -22 47 -36q13 -19 12 -48q-10 -115 -131 -72q-29 32 -32.5 72z" />
<glyph unicode="&#xec;" horiz-adv-x="376" d="M49 1997q-6 6 25 8q59 5 139 -4q6 -1 10.5 -17t7.5 -43.5t5 -35.5q10 -16 20 -69.5t23 -78.5q6 -14 -86 -6q-2 0 -11.5 17t-25.5 47.5t-31 52.5q-11 17 -27.5 47t-29.5 53t-19 29zM115 1634q0 9 15.5 11t62.5 2q72 0 75 -13q4 -4 6.5 -36t4.5 -84.5t4 -79.5q2 -30 2 -179 q-1 -87 3 -426t3 -417q-2 -61 -2 -193q0 -9 0.5 -45t0.5 -62.5t-1 -56t-4 -41.5q-6 -18 -72.5 -16.5t-87.5 14.5q1 25 0.5 111t1.5 115q4 99 -1.5 324.5t-4.5 322.5q0 344 -4 438q-2 80 -2 311z" />
<glyph unicode="&#xed;" horiz-adv-x="376" d="M115 1634q0 9 15.5 11t62.5 2q72 0 75 -13q4 -4 6.5 -36t4.5 -84.5t4 -79.5q2 -30 2 -179q-1 -87 3 -426t3 -417q-2 -61 -2 -193q0 -9 0.5 -45t0.5 -62.5t-1 -56t-4 -41.5q-6 -18 -72.5 -16.5t-87.5 14.5q1 25 0.5 111t1.5 115q4 99 -1.5 324.5t-4.5 322.5q0 344 -4 438 q-2 80 -2 311zM115 1757q13 25 23 78.5t20 69.5q2 8 5 35t7 43.5t10 17.5q104 12 154 3q10 -4 10 -7q-6 -6 -19 -29t-29.5 -53t-27.5 -47q-15 -22 -31 -52.5t-25 -47.5t-11 -17h-3q-90 -8 -83 6z" />
<glyph unicode="&#xee;" horiz-adv-x="376" d="M-29 1792q1 15 23 37t47 40.5t27 20.5q10 10 33 35t42 44t35 30q0 4 14 -7t45.5 -36.5t53.5 -42.5q102 -81 115 -121q3 -8 -14 -24.5t-23 -16.5q-2 0 -36.5 26t-76.5 56t-59 37q-18 -14 -97.5 -63t-89.5 -52q-4 -1 -19 13.5t-20 23.5zM115 1634q0 9 15.5 11t62.5 2 q72 0 75 -13q4 -4 6.5 -36t4.5 -84.5t4 -79.5q2 -30 2 -179q-1 -87 3 -426t3 -417q-2 -61 -2 -193q0 -9 0.5 -45t0.5 -62.5t-1 -56t-4 -41.5q-6 -18 -72.5 -16.5t-87.5 14.5q1 25 0.5 111t1.5 115q4 99 -1.5 324.5t-4.5 322.5q0 344 -4 438q-2 80 -2 311z" />
<glyph unicode="&#xef;" horiz-adv-x="376" d="M-18 1880q0 9 0.5 16.5t3 14t4.5 11t7 10t7.5 8t9 7.5t8.5 6t10 5.5t9 5.5q52 8 80 -18t24.5 -66t-32.5 -72q-121 -43 -131 72zM115 1634q0 9 15.5 11t62.5 2q72 0 75 -13q4 -4 6.5 -36t4.5 -84.5t4 -79.5q2 -30 2 -179q-1 -87 3 -426t3 -417q-2 -61 -2 -193 q0 -9 0.5 -45t0.5 -62.5t-1 -56t-4 -41.5q-6 -18 -72.5 -16.5t-87.5 14.5q1 25 0.5 111t1.5 115q4 99 -1.5 324.5t-4.5 322.5q0 344 -4 438q-2 80 -2 311zM237.5 1880q-3.5 40 24.5 66t80 18q37 -22 47 -36q13 -19 12 -48q-10 -115 -131 -72q-29 32 -32.5 72z" />
<glyph unicode="&#xf0;" d="M-4.5 1001.5q1.5 8.5 12.5 12.5q12 4 18.5 4.5t16 -1t18.5 -1.5h31q0 232 -6 315q-13 193 8 309q6 6 30.5 5.5t29.5 -0.5q41 2 59.5 1t56.5 -6t54 -6q152 -15 251 -90q34 -26 55.5 -85t28 -132.5t9 -160t0 -167.5t0.5 -155q2 -68 0 -107q-1 -29 -1 -125.5t-7 -155.5 t-27 -102q-19 -42 -98 -98q-13 -9 -28 -15t-24.5 -8t-31.5 -6l-33 -6q-38 -7 -174 -3.5t-146 7.5q-6 3 -2 25q-3 159 -3.5 250t0 136t-0.5 181v66h-2q-19 1 -42 -0.5t-29.5 -2t-14.5 2.5q-6 2 -4.5 21t0.5 24q1 19 -2.5 42t-2 31.5zM106.5 112.5q1.5 8.5 12.5 12.5 q12 4 57.5 4.5t102.5 -1.5l57 -1q211 0 297 6q8 1 11.5 -13t2.5 -35t-3 -41t-4.5 -34.5t-2.5 -13.5q-119 -8 -272 -2q-18 1 -84.5 -0.5t-108.5 -2t-57 2.5q-6 2 -4.5 21t0.5 24q1 19 -2.5 42t-2 31.5zM240 1491l8 -473q40 0 94 4q8 1 11.5 -13t2.5 -35t-3 -41t-4.5 -34.5 t-2.5 -13.5l-98 -6q0 -314 -4 -523q39 -16 126 -4.5t113 45.5q25 35 29 158q10 165 10 264q0 62 -1 92q-1 13 2 62q2 26 3 45q1 25 -0.5 67.5t-1.5 47.5q0 272 -82 335q-15 12 -42 20.5t-48.5 11t-59 6t-50.5 5.5q-2 -1 -2 -4t0.5 -7t-0.5 -9z" />
<glyph unicode="&#xf1;" horiz-adv-x="833" d="M61 1266q0 44 9 186q2 27 1 75t-2 74.5t1 38.5q4 8 58 8.5t81 -3.5q50 -5 52 -9l1 -4q4 -15 29.5 -83.5t25.5 -69.5q7 -28 26 -80.5t22 -61.5q55 -191 140 -534t99 -443q-1 37 5 403.5t3 412.5q-4 10 -2 117t2 132v213q30 4 58 4q79 0 80 -2q6 -13 8 -54t1.5 -85.5 t0.5 -89.5q-1 3 -1.5 -118.5t-1.5 -300.5t-2 -361t-3 -321t-4 -160q0 -1 1 -25.5t2 -50.5t1 -49.5t-2 -26.5q-5 -6 -37 -7t-65 0.5t-36 0.5q-35 -1 -53 25t-33 85q-10 40 -31.5 105.5t-31.5 105.5q-3 14 -13.5 47t-13.5 50q-80 320 -221 917q6 -162 6.5 -490.5t1.5 -385.5 q2 -49 -7 -234t-15 -215q-2 -8 -62 -8.5t-63 6.5q-13 37 -13 141q7 147 7 361q2 132 -4.5 386t-4.5 378zM189.5 1879q-0.5 23 16 54t44.5 39q55 17 106 0q19 -6 71 -49t69 -49q1 0 11.5 -3.5l15 -5t13.5 -1.5t13.5 3t9 10.5t4.5 20.5q0 12 12.5 20t25.5 2.5t13 -26.5 q2 -24 -29.5 -68t-56.5 -48q-30 -6 -62 9t-56.5 38t-62 47.5t-75.5 32.5q-14 -1 -23.5 -14t-13 -25.5t-15.5 -19t-30 4.5q0 5 -0.5 28z" />
<glyph unicode="&#xf2;" d="M98.5 679q1.5 53 6.5 155.5t6 138.5q2 192 18 334q17 161 55 237q52 100 166 105q68 3 135.5 -30t102.5 -81q56 -79 67 -244q6 -83 5 -164t2 -169q0 -209 -20 -406.5t-67 -265.5q-38 -56 -116.5 -68.5t-156.5 11.5t-128 69q-13 12 -29 45.5t-20 50.5q-16 65 -22 147 t-4.5 135zM132.5 112.5q1.5 8.5 12.5 12.5q12 4 50 4.5t86.5 -1t50.5 -1.5q196 0 282 6q8 1 11.5 -13t2.5 -35t-3 -41t-4.5 -34.5t-2.5 -13.5q-114 -8 -258 -2q-18 1 -76 -0.5t-94 -2t-49 2.5q-6 2 -4.5 21t0.5 24q1 19 -2.5 42t-2 31.5zM248 581q-2 -54 12 -120 q12 -47 39 -70q17 -15 65.5 -28.5t67.5 -2.5q10 7 23 43t20 68q30 113 23 494q-1 72 -1.5 101.5t-1 36.5t-1.5 10t-3 35.5t-4 98.5q-4 160 -34 213q-11 21 -31.5 40t-38.5 16q-13 -1 -32.5 -21t-26.5 -35q-39 -92 -43 -305q-1 -61 -12.5 -156t-8.5 -135q3 -48 -3.5 -138.5 t-8.5 -144.5zM264 1997q-6 6 25 8q59 5 139 -4q6 -1 10.5 -17t7.5 -43.5t5 -35.5q10 -16 20 -69.5t23 -78.5q6 -14 -86 -6q-2 0 -11.5 17t-25.5 47.5t-31 52.5q-11 17 -27.5 47t-29.5 53t-19 29z" />
<glyph unicode="&#xf3;" d="M98.5 679q1.5 53 6.5 155.5t6 138.5q2 192 18 334q17 161 55 237q52 100 166 105q68 3 135.5 -30t102.5 -81q56 -79 67 -244q6 -83 5 -164t2 -169q0 -209 -20 -406.5t-67 -265.5q-38 -56 -116.5 -68.5t-156.5 11.5t-128 69q-13 12 -29 45.5t-20 50.5q-16 65 -22 147 t-4.5 135zM132.5 112.5q1.5 8.5 12.5 12.5q12 4 50 4.5t86.5 -1t50.5 -1.5q196 0 282 6q8 1 11.5 -13t2.5 -35t-3 -41t-4.5 -34.5t-2.5 -13.5q-114 -8 -258 -2q-18 1 -76 -0.5t-94 -2t-49 2.5q-6 2 -4.5 21t0.5 24q1 19 -2.5 42t-2 31.5zM248 581q-2 -54 12 -120 q12 -47 39 -70q17 -15 65.5 -28.5t67.5 -2.5q10 7 23 43t20 68q30 113 23 494q-1 72 -1.5 101.5t-1 36.5t-1.5 10t-3 35.5t-4 98.5q-4 160 -34 213q-11 21 -31.5 40t-38.5 16q-13 -1 -32.5 -21t-26.5 -35q-39 -92 -43 -305q-1 -61 -12.5 -156t-8.5 -135q3 -48 -3.5 -138.5 t-8.5 -144.5zM322 1757q13 25 23 78.5t20 69.5q2 8 5 35t7 43.5t10 17.5q104 12 154 3q10 -4 10 -7q-6 -6 -19 -29t-29.5 -53t-27.5 -47q-15 -22 -31 -52.5t-25 -47.5t-11 -17h-3q-90 -8 -83 6z" />
<glyph unicode="&#xf4;" d="M98.5 679q1.5 53 6.5 155.5t6 138.5q2 192 18 334q17 161 55 237q52 100 166 105q68 3 135.5 -30t102.5 -81q56 -79 67 -244q6 -83 5 -164t2 -169q0 -209 -20 -406.5t-67 -265.5q-38 -56 -116.5 -68.5t-156.5 11.5t-128 69q-13 12 -29 45.5t-20 50.5q-16 65 -22 147 t-4.5 135zM132.5 112.5q1.5 8.5 12.5 12.5q12 4 50 4.5t86.5 -1t50.5 -1.5q196 0 282 6q8 1 11.5 -13t2.5 -35t-3 -41t-4.5 -34.5t-2.5 -13.5q-114 -8 -258 -2q-18 1 -76 -0.5t-94 -2t-49 2.5q-6 2 -4.5 21t0.5 24q1 19 -2.5 42t-2 31.5zM164 1792q1 15 22.5 37t46.5 40.5 t27 20.5q9 9 33 35t43 44.5t35 29.5q0 4 14 -7t45 -36.5t53 -42.5q102 -81 115 -121q3 -8 -14 -24.5t-23 -16.5q-2 0 -36.5 26t-76.5 56t-59 37q-18 -14 -97 -63t-89 -52q-4 -1 -19 13.5t-20 23.5zM248 581q-2 -54 12 -120q12 -47 39 -70q17 -15 65.5 -28.5t67.5 -2.5 q10 7 23 43t20 68q30 113 23 494q-1 72 -1.5 101.5t-1 36.5t-1.5 10t-3 35.5t-4 98.5q-4 160 -34 213q-11 21 -31.5 40t-38.5 16q-13 -1 -32.5 -21t-26.5 -35q-39 -92 -43 -305q-1 -61 -12.5 -156t-8.5 -135q3 -48 -3.5 -138.5t-8.5 -144.5z" />
<glyph unicode="&#xf5;" d="M98.5 679q1.5 53 6.5 155.5t6 138.5q2 192 18 334q17 161 55 237q52 100 166 105q68 3 135.5 -30t102.5 -81q56 -79 67 -244q6 -83 5 -164t2 -169q0 -209 -20 -406.5t-67 -265.5q-38 -56 -116.5 -68.5t-156.5 11.5t-128 69q-13 12 -29 45.5t-20 50.5q-16 65 -22 147 t-4.5 135zM132.5 112.5q1.5 8.5 12.5 12.5q12 4 50 4.5t86.5 -1t50.5 -1.5q196 0 282 6q8 1 11.5 -13t2.5 -35t-3 -41t-4.5 -34.5t-2.5 -13.5q-114 -8 -258 -2q-18 1 -76 -0.5t-94 -2t-49 2.5q-6 2 -4.5 21t0.5 24q1 19 -2.5 42t-2 31.5zM185.5 1879q-0.5 23 16 54t44.5 39 q55 17 106 0q19 -6 71 -49t69 -49q1 0 11.5 -3.5l15 -5t13.5 -1.5t13.5 3t9 10.5t4.5 20.5q0 12 12.5 20t25.5 2.5t13 -26.5q0 -101 -86 -116q-30 -6 -62 9t-56.5 38t-62 47.5t-75.5 32.5q-14 -1 -23.5 -14t-13 -25.5t-15.5 -19t-30 4.5q0 5 -0.5 28zM248 581 q-2 -54 12 -120q12 -47 39 -70q17 -15 65.5 -28.5t67.5 -2.5q10 7 23 43t20 68q30 113 23 494q-1 72 -1.5 101.5t-1 36.5t-1.5 10t-3 35.5t-4 98.5q-4 160 -34 213q-11 21 -31.5 40t-38.5 16q-13 -1 -32.5 -21t-26.5 -35q-39 -92 -43 -305q-1 -61 -12.5 -156t-8.5 -135 q3 -48 -3.5 -138.5t-8.5 -144.5z" />
<glyph unicode="&#xf6;" d="M98.5 679q1.5 53 6.5 155.5t6 138.5q2 192 18 334q17 161 55 237q52 100 166 105q68 3 135.5 -30t102.5 -81q56 -79 67 -244q6 -83 5 -164t2 -169q0 -209 -20 -406.5t-67 -265.5q-38 -56 -116.5 -68.5t-156.5 11.5t-128 69q-13 12 -29 45.5t-20 50.5q-16 65 -22 147 t-4.5 135zM132.5 112.5q1.5 8.5 12.5 12.5q12 4 50 4.5t86.5 -1t50.5 -1.5q196 0 282 6q8 1 11.5 -13t2.5 -35t-3 -41t-4.5 -34.5t-2.5 -13.5q-114 -8 -258 -2q-18 1 -76 -0.5t-94 -2t-49 2.5q-6 2 -4.5 21t0.5 24q1 19 -2.5 42t-2 31.5zM176 1880q0 10 1.5 18.5t3 14.5 t7 13t7.5 10t10 8.5t9.5 7t11 7t10.5 5.5q52 8 79.5 -18t24 -66t-32.5 -72q-121 -43 -131 72zM248 581q-2 -54 12 -120q12 -47 39 -70q17 -15 65.5 -28.5t67.5 -2.5q10 7 23 43t20 68q30 113 23 494q-1 72 -1.5 101.5t-1 36.5t-1.5 10t-3 35.5t-4 98.5q-4 160 -34 213 q-11 21 -31.5 40t-38.5 16q-13 -1 -32.5 -21t-26.5 -35q-39 -92 -43 -305q-1 -61 -12.5 -156t-8.5 -135q3 -48 -3.5 -138.5t-8.5 -144.5zM432.5 1880q-3.5 40 24.5 66t80 18q37 -22 47 -36q13 -19 12 -48q-10 -115 -131 -72q-29 32 -32.5 72z" />
<glyph unicode="&#xf8;" d="M96.5 487.5q0.5 60.5 6 187.5t6.5 148q4 361 18 484q17 161 55 237q52 100 166 105q62 3 135 -31l17 98q12 2 38.5 1t30.5 -5q0 -9 -22 -135q17 -13 39 -39q56 -79 67 -244q6 -84 4.5 -244.5t1.5 -248.5q0 -223 -20 -448.5t-66 -293.5q-27 -39 -76 -57t-102.5 -15 t-107.5 21l-17 -69q-44 -8 -77 0q2 7 7 24t10 36t9 38q-27 15 -47 35q-13 12 -29 45.5t-20 50.5q-16 65 -21.5 162t-5 157.5zM245 333.5q2 -68.5 13 -102.5v-4q38 199 78.5 439t52.5 342q6 67 66 440l-4 12q-11 21 -31.5 40t-38.5 16q-13 -1 -32.5 -21t-26.5 -35 q-39 -92 -43 -305q-1 -65 -11 -273.5t-10 -246.5q0 -1 -4 -56.5t-7.5 -116t-1.5 -129zM315 150q29 -14 61 -20.5t54 1.5q22 12 43 111q30 114 23 503q-2 211 -9 463q-60 -379 -67 -473q-10 -86 -105 -585z" />
<glyph unicode="&#xf9;" horiz-adv-x="780" d="M113 893q3 91 0 152t4 151q1 16 3 76.5t3 77.5q1 14 0.5 58t1.5 65q2 17 3 59.5t2.5 73t4.5 32.5q5 3 35.5 7.5t67.5 1.5t49 -19q-2 -80 -5.5 -182.5t-5.5 -176t-2 -161.5q0 -47 -2.5 -171t-2 -189.5t11 -160t32.5 -165.5q20 -64 70 -70q20 -1 48.5 12t37.5 27 q4 6 7.5 15t6 16.5t4.5 20.5t3.5 21t3 23.5t1.5 22t1.5 24.5t1.5 23q4 108 8 288.5t6 254.5q2 91 2 327q1 25 -1 78t-1.5 86.5t4.5 36.5q23 13 63 14.5t70.5 -6t30.5 -16.5q0 -14 3 -96.5t3 -100.5q-4 -125 0 -393q0 -98 -10 -303q-6 -192 -23 -299q-8 -44 -18.5 -71.5 t-32.5 -55.5q-58 -68 -192 -96q-45 -8 -114 27t-99 69q-33 40 -47 72q-18 46 -25 127q-16 146 -12 393zM141 112.5q2 8.5 13 12.5q12 4 39 4.5t61 -1t39 -1.5q258 0 344 6q8 1 11.5 -13t2.5 -35t-3 -41t-4.5 -34.5t-2.5 -13.5q-145 -10 -342 -2q-19 1 -58.5 -0.5t-59.5 -2 t-31 2.5q-6 6 -5 21t0 24q1 19 -2.5 42t-1.5 31.5zM244 1997q-6 6 25 8q59 5 139 -4q6 -1 10 -17.5t7 -43.5t5 -35q10 -16 20 -69.5t23 -78.5q6 -14 -86 -6q-2 0 -11.5 17t-25.5 47.5t-31 52.5q-12 19 -40 70.5t-35 58.5z" />
<glyph unicode="&#xfa;" horiz-adv-x="780" d="M113 893q3 91 0 152t4 151q1 16 3 76.5t3 77.5q1 14 0.5 58t1.5 65q2 17 3 59.5t2.5 73t4.5 32.5q5 3 35.5 7.5t67.5 1.5t49 -19q-2 -80 -5.5 -182.5t-5.5 -176t-2 -161.5q0 -47 -2.5 -171t-2 -189.5t11 -160t32.5 -165.5q20 -64 70 -70q20 -1 48.5 12t37.5 27 q4 6 7.5 15t6 16.5t4.5 20.5t3.5 21t3 23.5t1.5 22t1.5 24.5t1.5 23q4 108 8 288.5t6 254.5q2 91 2 327q1 25 -1 78t-1.5 86.5t4.5 36.5q23 13 63 14.5t70.5 -6t30.5 -16.5q0 -14 3 -96.5t3 -100.5q-4 -125 0 -393q0 -98 -10 -303q-6 -192 -23 -299q-8 -44 -18.5 -71.5 t-32.5 -55.5q-58 -68 -192 -96q-45 -8 -114 27t-99 69q-33 40 -47 72q-18 46 -25 127q-16 146 -12 393zM141 112.5q2 8.5 13 12.5q12 4 39 4.5t61 -1t39 -1.5q258 0 344 6q8 1 11.5 -13t2.5 -35t-3 -41t-4.5 -34.5t-2.5 -13.5q-145 -10 -342 -2q-19 1 -58.5 -0.5t-59.5 -2 t-31 2.5q-6 6 -5 21t0 24q1 19 -2.5 42t-1.5 31.5zM322 1757q13 25 23 78.5t20 69.5q2 8 5 35t7 43.5t10 17.5q104 12 154 3q10 -4 10 -7q-6 -6 -19 -29t-29.5 -53t-27.5 -47q-15 -22 -31 -52.5t-25 -47.5t-11 -17h-3q-90 -8 -83 6z" />
<glyph unicode="&#xfb;" horiz-adv-x="780" d="M113 893q3 91 0 152t4 151q1 16 3 76.5t3 77.5q1 14 0.5 58t1.5 65q2 17 3 59.5t2.5 73t4.5 32.5q5 3 35.5 7.5t67.5 1.5t49 -19q-2 -80 -5.5 -182.5t-5.5 -176t-2 -161.5q0 -47 -2.5 -171t-2 -189.5t11 -160t32.5 -165.5q20 -64 70 -70q20 -1 48.5 12t37.5 27 q4 6 7.5 15t6 16.5t4.5 20.5t3.5 21t3 23.5t1.5 22t1.5 24.5t1.5 23q4 108 8 288.5t6 254.5q2 91 2 327q1 25 -1 78t-1.5 86.5t4.5 36.5q23 13 63 14.5t70.5 -6t30.5 -16.5q0 -14 3 -96.5t3 -100.5q-4 -125 0 -393q0 -98 -10 -303q-6 -192 -23 -299q-8 -44 -18.5 -71.5 t-32.5 -55.5q-58 -68 -192 -96q-45 -8 -114 27t-99 69q-33 40 -47 72q-18 46 -25 127q-16 146 -12 393zM141 112.5q2 8.5 13 12.5q12 4 39 4.5t61 -1t39 -1.5q258 0 344 6q8 1 11.5 -13t2.5 -35t-3 -41t-4.5 -34.5t-2.5 -13.5q-145 -10 -342 -2q-19 1 -58.5 -0.5t-59.5 -2 t-31 2.5q-6 6 -5 21t0 24q1 19 -2.5 42t-1.5 31.5zM195 1792q1 15 22.5 37t46.5 40.5t27 20.5q10 10 33 35t42 44t35 30q0 4 14 -7t45.5 -36.5t53.5 -42.5q102 -81 115 -121q3 -8 -14 -24.5t-23 -16.5q-2 0 -36.5 26t-76.5 56t-59 37q-18 -14 -97.5 -63t-89.5 -52 q-4 -1 -18.5 13t-19.5 24z" />
<glyph unicode="&#xfc;" horiz-adv-x="780" d="M113 893q3 91 0 152t4 151q1 16 3 76.5t3 77.5q1 14 0.5 58t1.5 65q2 17 3 59.5t2.5 73t4.5 32.5q5 3 35.5 7.5t67.5 1.5t49 -19q-2 -80 -5.5 -182.5t-5.5 -176t-2 -161.5q0 -47 -2.5 -171t-2 -189.5t11 -160t32.5 -165.5q20 -64 70 -70q20 -1 48.5 12t37.5 27 q4 6 7.5 15t6 16.5t4.5 20.5t3.5 21t3 23.5t1.5 22t1.5 24.5t1.5 23q4 108 8 288.5t6 254.5q2 91 2 327q1 25 -1 78t-1.5 86.5t4.5 36.5q23 13 63 14.5t70.5 -6t30.5 -16.5q0 -14 3 -96.5t3 -100.5q-4 -125 0 -393q0 -98 -10 -303q-6 -192 -23 -299q-8 -44 -18.5 -71.5 t-32.5 -55.5q-58 -68 -192 -96q-45 -8 -114 27t-99 69q-33 40 -47 72q-18 46 -25 127q-16 146 -12 393zM141 112.5q2 8.5 13 12.5q12 4 39 4.5t61 -1t39 -1.5q258 0 344 6q8 1 11.5 -13t2.5 -35t-3 -41t-4.5 -34.5t-2.5 -13.5q-145 -10 -342 -2q-19 1 -58.5 -0.5t-59.5 -2 t-31 2.5q-6 6 -5 21t0 24q1 19 -2.5 42t-1.5 31.5zM193 1880q0 9 0.5 16.5t3 14t4.5 11t7 10t7.5 8t9 7.5t8.5 6t10 5.5t9 5.5q52 8 80 -18t24.5 -66t-32.5 -72q-121 -43 -131 72zM448.5 1880q-3.5 40 24.5 66t80 18q37 -22 47 -36q13 -19 12 -48q-10 -115 -131 -72 q-29 32 -32.5 72z" />
<glyph unicode="&#xfd;" horiz-adv-x="692" d="M6 1626q3 6 75.5 5.5t76.5 -7.5q8 -13 22 -72t19 -73q24 -82 46 -175.5t48.5 -212.5t42.5 -184q1 0 12 33.5t25.5 80t21.5 75.5q13 52 49.5 216t42.5 199q7 8 20 60.5t17 60.5q45 10 98 9.5t60 -7.5q-4 -18 -21.5 -95t-23.5 -112q-2 -19 -12.5 -53t-16.5 -59 q-20 -62 -46 -188t-38 -160q-8 -23 -30 -100t-42.5 -135.5t-39.5 -94.5q-6 -87 -5.5 -218.5t-0.5 -172.5q0 -28 3.5 -78.5t3.5 -90t-7 -73.5q-4 -9 -45.5 -11t-81 1.5t-39.5 7.5q0 11 -1 64.5t-1 72.5q-12 180 -7 291q1 48 0 151v56q-24 162 -38 211q-8 30 -113 463 q-13 61 -39 153q-38 156 -35 162zM295 1757q13 25 23 78.5t20 69.5q2 8 5 35t7 43.5t10 17.5q104 12 154 3q10 -4 10 -7q-7 -7 -35 -58.5t-40 -70.5q-15 -22 -31 -52.5t-25.5 -47.5t-11.5 -17h-3q-90 -8 -83 6z" />
<glyph unicode="&#xff;" horiz-adv-x="692" d="M6 1626q3 6 75.5 5.5t76.5 -7.5q8 -13 22 -72t19 -73q24 -82 46 -175.5t48.5 -212.5t42.5 -184q1 0 12 33.5t25.5 80t21.5 75.5q13 52 49.5 216t42.5 199q7 8 20 60.5t17 60.5q45 10 98 9.5t60 -7.5q-4 -18 -21.5 -95t-23.5 -112q-2 -19 -12.5 -53t-16.5 -59 q-20 -62 -46 -188t-38 -160q-8 -23 -30 -100t-42.5 -135.5t-39.5 -94.5q-6 -87 -5.5 -218.5t-0.5 -172.5q0 -28 3.5 -78.5t3.5 -90t-7 -73.5q-4 -9 -45.5 -11t-81 1.5t-39.5 7.5q0 11 -1 64.5t-1 72.5q-12 180 -7 291q1 48 0 151v56q-24 162 -38 211q-8 30 -113 463 q-13 61 -39 153q-38 156 -35 162zM127 1880q0 9 0.5 16.5t3 14t4.5 11t7 10t7.5 8t9 7.5t8.5 6t10 5.5t9 5.5q52 8 80 -18t24.5 -66t-32.5 -72q-121 -43 -131 72zM383.5 1880q-3.5 40 24 66t79.5 18q2 -1 9 -5t9.5 -6t9 -6t9.5 -7t7.5 -8t7 -10t5 -11.5t3 -14t0.5 -16.5 q-10 -115 -131 -72q-29 32 -32.5 72z" />
<glyph unicode="&#x152;" horiz-adv-x="937" d="M57.5 487.5q0.5 60.5 6 187.5t6.5 148q4 361 18 484q17 161 55 237q52 100 166 105q77 3 152 -39q0 10 4 26q46 8 84 10.5t87.5 3t76.5 1.5q156 4 184 -17q-2 -7 0.5 -35t3.5 -47.5t-8 -29.5q-6 -4 -22 -4.5t-30.5 0.5t-27.5 0q-28 -2 -99.5 -1t-99.5 -1q9 -356 7 -537 q17 -5 39.5 -5.5t59.5 0.5t50 1q15 -1 35 0t41 -1t26 -7q7 -7 7 -97q0 -24 -5 -26q-14 -2 -55.5 -1.5t-106.5 0.5t-91 -3v-35v-4q0 -152 -13 -365q-4 -178 4 -301q10 -4 124.5 -4t142.5 -10q8 -72 8 -117q1 -8 -2 -13.5t-11 -7t-13.5 -2t-18.5 0t-17 0.5q-14 0 -63 1t-72 1 q-17 0 -61 2.5t-62 1.5q-4 0 -21.5 -0.5t-31 -1t-27.5 1.5t-18 6l-6 8q-77 -29 -173 -7t-157 77q-13 12 -29 45.5t-20 50.5q-16 65 -21.5 162t-5 157.5zM206 333.5q2 -68.5 13 -102.5q12 -45 39 -69q17 -15 65.5 -28.5t67.5 -2.5q22 12 43 111q30 114 23 503q-2 217 -11 502 q-4 160 -34 213q-11 21 -31.5 40t-38.5 16q-13 -1 -32.5 -21t-26.5 -35q-39 -92 -43 -305q-1 -65 -11 -273.5t-10 -246.5q0 -1 -4 -56.5t-7.5 -116t-1.5 -129z" />
<glyph unicode="&#x153;" horiz-adv-x="937" d="M57.5 487.5q0.5 60.5 6 187.5t6.5 148q4 361 18 484q17 161 55 237q52 100 166 105q77 3 152 -39q0 10 4 26q46 8 84 10.5t87.5 3t76.5 1.5q156 4 184 -17q-2 -7 0.5 -35t3.5 -47.5t-8 -29.5q-6 -4 -22 -4.5t-30.5 0.5t-27.5 0q-28 -2 -99.5 -1t-99.5 -1q9 -356 7 -537 q17 -5 39.5 -5.5t59.5 0.5t50 1q15 -1 35 0t41 -1t26 -7q7 -7 7 -97q0 -24 -5 -26q-14 -2 -55.5 -1.5t-106.5 0.5t-91 -3v-35v-4q0 -152 -13 -365q-4 -178 4 -301q10 -4 124.5 -4t142.5 -10q8 -72 8 -117q1 -8 -2 -13.5t-11 -7t-13.5 -2t-18.5 0t-17 0.5q-14 0 -63 1t-72 1 q-17 0 -61 2.5t-62 1.5q-4 0 -21.5 -0.5t-31 -1t-27.5 1.5t-18 6l-6 8q-77 -29 -173 -7t-157 77q-13 12 -29 45.5t-20 50.5q-16 65 -21.5 162t-5 157.5zM206 333.5q2 -68.5 13 -102.5q12 -45 39 -69q17 -15 65.5 -28.5t67.5 -2.5q22 12 43 111q30 114 23 503q-2 217 -11 502 q-4 160 -34 213q-11 21 -31.5 40t-38.5 16q-13 -1 -32.5 -21t-26.5 -35q-39 -92 -43 -305q-1 -65 -11 -273.5t-10 -246.5q0 -1 -4 -56.5t-7.5 -116t-1.5 -129z" />
<glyph unicode="&#x178;" horiz-adv-x="692" d="M6 1626q3 6 75.5 5.5t76.5 -7.5q8 -13 22 -72t19 -73q24 -82 46 -175.5t48.5 -212.5t42.5 -184q1 0 12 33.5t25.5 80t21.5 75.5q13 52 49.5 216t42.5 199q7 8 20 60.5t17 60.5q45 10 98 9.5t60 -7.5q-4 -18 -21.5 -95t-23.5 -112q-2 -19 -12.5 -53t-16.5 -59 q-20 -62 -46 -188t-38 -160q-8 -23 -30 -100t-42.5 -135.5t-39.5 -94.5q-6 -87 -5.5 -218.5t-0.5 -172.5q0 -28 3.5 -78.5t3.5 -90t-7 -73.5q-4 -9 -45.5 -11t-81 1.5t-39.5 7.5q0 11 -1 64.5t-1 72.5q-12 180 -7 291q1 48 0 151v56q-24 162 -38 211q-8 30 -113 463 q-13 61 -39 153q-38 156 -35 162zM127 1880q0 9 0.5 16.5t3 14t4.5 11t7 10t7.5 8t9 7.5t8.5 6t10 5.5t9 5.5q52 8 80 -18t24.5 -66t-32.5 -72q-121 -43 -131 72zM383.5 1880q-3.5 40 24 66t79.5 18q2 -1 9 -5t9.5 -6t9 -6t9.5 -7t7.5 -8t7 -10t5 -11.5t3 -14t0.5 -16.5 q-10 -115 -131 -72q-29 32 -32.5 72z" />
<glyph unicode="&#x2c6;" horiz-adv-x="389" d="M-23 1792q1 15 23 37t47 40.5t27 20.5q10 10 33 35t42 44t35 30q0 4 14 -7t45.5 -36.5t53.5 -42.5q102 -81 115 -121q3 -8 -14 -24.5t-23 -16.5q-2 0 -36.5 26t-76.5 56t-59 37q-18 -14 -97.5 -63t-89.5 -52q-4 -1 -19 13.5t-20 23.5z" />
<glyph unicode="&#x2dc;" horiz-adv-x="651" d="M110.5 1183q-0.5 23 15.5 54t44 39q55 17 106 0q19 -6 71 -49t69 -49q1 0 11.5 -3.5l15 -5t13.5 -1.5t13.5 3t9 10.5t4.5 20.5q0 12 13 20t26 2.5t13 -26.5q0 -58 -26 -84.5t-60 -32.5q-30 -6 -62 9t-56.5 38t-62 47.5t-75.5 32.5q-17 -2 -28 -22t-17.5 -31t-36.5 0 q0 5 -0.5 28z" />
<glyph unicode="&#x2000;" horiz-adv-x="1006" />
<glyph unicode="&#x2001;" horiz-adv-x="2013" />
<glyph unicode="&#x2002;" horiz-adv-x="1006" />
<glyph unicode="&#x2003;" horiz-adv-x="2013" />
<glyph unicode="&#x2004;" horiz-adv-x="671" />
<glyph unicode="&#x2005;" horiz-adv-x="503" />
<glyph unicode="&#x2006;" horiz-adv-x="335" />
<glyph unicode="&#x2007;" horiz-adv-x="335" />
<glyph unicode="&#x2008;" horiz-adv-x="251" />
<glyph unicode="&#x2009;" horiz-adv-x="402" />
<glyph unicode="&#x200a;" horiz-adv-x="111" />
<glyph unicode="&#x2010;" horiz-adv-x="790" d="M99 800q1 21 3 41t4.5 34.5t2.5 13.5q140 10 329 2q18 -1 84.5 0.5t108.5 2t57 -2.5q6 -2 4.5 -21t-0.5 -24q-1 -19 2.5 -42t2 -31.5t-12.5 -12.5q-12 -4 -57.5 -4.5t-102.5 0.5l-57 2q-268 0 -354 -6q-8 -1 -11.5 13t-2.5 35z" />
<glyph unicode="&#x2011;" horiz-adv-x="790" d="M99 800q1 21 3 41t4.5 34.5t2.5 13.5q140 10 329 2q18 -1 84.5 0.5t108.5 2t57 -2.5q6 -2 4.5 -21t-0.5 -24q-1 -19 2.5 -42t2 -31.5t-12.5 -12.5q-12 -4 -57.5 -4.5t-102.5 0.5l-57 2q-268 0 -354 -6q-8 -1 -11.5 13t-2.5 35z" />
<glyph unicode="&#x2012;" horiz-adv-x="790" d="M99 800q1 21 3 41t4.5 34.5t2.5 13.5q140 10 329 2q18 -1 84.5 0.5t108.5 2t57 -2.5q6 -2 4.5 -21t-0.5 -24q-1 -19 2.5 -42t2 -31.5t-12.5 -12.5q-12 -4 -57.5 -4.5t-102.5 0.5l-57 2q-268 0 -354 -6q-8 -1 -11.5 13t-2.5 35z" />
<glyph unicode="&#x2013;" horiz-adv-x="1024" d="M76 800q1 21 3 41t4.5 34.5t2.5 13.5q141 10 330 2q18 -1 156.5 0.5t242 2t129.5 -2.5q6 -2 4.5 -21t-0.5 -24q-1 -19 2.5 -42t2 -31.5t-12.5 -12.5q-9 -3 -86.5 -4t-160 -0.5t-165.5 1.5l-84 1q-268 0 -354 -6q-8 -1 -11.5 13t-2.5 35z" />
<glyph unicode="&#x2014;" horiz-adv-x="1775" d="M76 800q1 21 3 41t4.5 34.5t2.5 13.5q141 10 330 2q17 -1 352.5 0.5t606.5 2t325 -2.5q6 -2 4.5 -21t-0.5 -24q-1 -19 2.5 -42t2 -31.5t-12.5 -12.5q-6 -2 -100.5 -3t-229.5 -1h-296.5t-294 0.5t-231.5 1t-100 0.5q-268 0 -354 -6q-8 -1 -11.5 13t-2.5 35z" />
<glyph unicode="&#x2018;" horiz-adv-x="387" d="M98 1551.5q-1 10.5 0 13.5q9 40 28 74.5t36 52t32.5 31t16.5 14.5q33 -17 35 -19q-7 -9 -37 -43.5t-37 -44.5q32 -4 53.5 -11t32 -14.5t14.5 -20.5t4 -22.5t-1 -26t-1 -26.5q1 -19 -16.5 -40t-32.5 -23q-7 -1 -17.5 -3.5t-15.5 -3t-14 2t-22 8.5q-19 10 -35.5 32 t-18.5 36q0 1 -1.5 12t-2.5 21.5z" />
<glyph unicode="&#x2019;" horiz-adv-x="387" d="M125 1606.5q0 9.5 1 26t1 26.5q-1 19 16.5 40t32.5 23q7 1 17.5 3.5t15.5 3t15 -2t22 -8.5q19 -10 35 -31.5t18 -35.5q0 -1 1.5 -12t2.5 -21.5t0 -13.5q-9 -40 -28 -74.5t-36 -52t-32.5 -31t-16.5 -14.5q-32 16 -34 18q7 8 36.5 43t36.5 45q-32 4 -53.5 11t-32 14.5 t-14.5 20.5t-4 22.5z" />
<glyph unicode="&#x201a;" horiz-adv-x="241" d="M87.5 156q0.5 46 4.5 55q2 3 10 3.5t22.5 0.5t25.5 2l-5 -231h-2.5h-6.5h-9.5t-10.5 -0.5t-10.5 0t-8.5 0.5t-6 0.5t-1 1.5q0 3 -1.5 62.5t-1 105.5z" />
<glyph unicode="&#x201c;" horiz-adv-x="530" d="M84 1551.5q-1 10.5 0 13.5q9 40 28 74.5t36 52t32.5 31t16.5 14.5q32 -17 34 -19q-7 -8 -36.5 -43t-36.5 -45q32 -4 53.5 -11t32 -14.5t14.5 -20.5t4 -22.5t-1 -26t-1 -26.5q1 -19 -16.5 -40t-32.5 -23q-7 -1 -17.5 -3.5t-15.5 -3t-15 2t-22 8.5q-19 10 -35 31.5 t-18 36.5q0 1 -1.5 12t-2.5 21.5zM293 1551.5q-1 10.5 0 13.5q9 40 28 74.5t36 52t32.5 31t16.5 14.5q32 -17 34 -19q-7 -8 -36.5 -43t-36.5 -45q32 -4 53.5 -11t32 -14.5t14.5 -20.5t4 -22.5t-1 -26t-1 -26.5q1 -19 -16.5 -40t-32.5 -23q-7 -1 -17.5 -3.5t-15.5 -3t-15 2 t-22 8.5q-19 10 -35 31.5t-18 36.5q0 1 -1.5 12t-2.5 21.5z" />
<glyph unicode="&#x201d;" horiz-adv-x="382" d="M-22 1606.5q0 9.5 1 26t1 26.5q-1 19 16.5 40t32.5 23q7 1 17.5 3.5t15.5 3t14 -2t22 -8.5q19 -10 35.5 -31.5t18.5 -35.5q0 -1 1.5 -12t2.5 -21.5t0 -13.5q-9 -40 -28 -74.5t-36 -52t-32.5 -31t-16.5 -14.5q-33 16 -35 18q7 9 37 43.5t37 44.5q-32 4 -53.5 11t-32 14.5 t-14.5 20.5t-4 22.5zM186 1606q0 9 1 26t1 27q-1 19 17 40t33 23q7 1 17.5 3.5t15.5 3t14 -2t22 -8.5q19 -10 35 -31.5t18 -35.5l3 -21q3 -22 2 -26q-9 -40 -28 -74.5t-36 -52t-32.5 -31t-16.5 -14.5q-33 16 -35 18q7 9 37 43.5t37 44.5q-32 4 -53.5 11t-32 14.5t-15 20.5 t-4.5 22z" />
<glyph unicode="&#x201e;" horiz-adv-x="364" d="M87.5 156q0.5 46 4.5 55q2 3 10 3.5t22.5 0.5t25.5 2l-5 -231h-2.5h-6.5h-9.5t-10.5 -0.5t-10.5 0t-8.5 0.5t-6 0.5t-1 1.5q0 3 -1.5 62.5t-1 105.5zM223 217q11 -2 25.5 -2t22.5 -0.5t10 -3.5q4 -9 4.5 -55t-1 -105.5t-1.5 -62.5q4 -4 -56 -2z" />
<glyph unicode="&#x2022;" horiz-adv-x="567" d="M108.5 847q0.5 17 9 37t25.5 38q15 15 28 25.5t21 14.5t23.5 10.5t24.5 10.5q61 11 116 -4q33 -10 40 -17q11 -9 59 -81q18 -32 18 -53t-18 -78q-16 -47 -56 -77.5t-92 -27.5q-41 1 -80.5 13.5t-50.5 25.5q-24 23 -38.5 47t-17.5 35t-3 16q0 1 -3 11.5t-4.5 23.5t-1 30z " />
<glyph unicode="&#x2026;" horiz-adv-x="915" d="M92 72q0 10 1.5 18.5t3 14.5t7 13t7.5 10t10 8.5t9.5 7t11 7t10.5 5.5q52 8 79.5 -18t24 -66t-32.5 -72q-121 -43 -131 72zM368.5 72q-3.5 40 24.5 66t80 18q37 -22 47 -36q13 -19 12 -48q-10 -115 -131 -72q-29 32 -32.5 72zM655 72q0 10 1.5 18.5t3 14.5t7 13t7.5 10 t10 8.5t9.5 7t11 7t10.5 5.5q52 8 79.5 -18t24 -66t-32.5 -72q-121 -43 -131 72z" />
<glyph unicode="&#x202f;" horiz-adv-x="402" />
<glyph unicode="&#x2039;" horiz-adv-x="382" d="M76 823q11 16 29 34.5t44.5 43.5t34.5 33q2 2 21 27t40.5 46.5t37.5 22.5q9 -5 23 -20t13 -19q-3 -10 -51.5 -89t-62.5 -97q7 -17 37 -59t56 -76.5t26 -36.5q0 -6 -16.5 -23t-24.5 -14q-40 13 -121 115q-17 22 -42.5 53t-36.5 45t-7 14z" />
<glyph unicode="&#x203a;" horiz-adv-x="382" d="M68 633q0 2 26 36.5t55.5 76.5t36.5 59q-14 18 -62.5 97t-51.5 89q-1 4 13.5 19t23.5 20q15 -1 37 -22.5t40.5 -46.5t20.5 -27q8 -8 34.5 -33t44.5 -43.5t29 -34.5q4 0 -7 -14t-36.5 -45t-42.5 -53q-81 -103 -120 -115q-8 -3 -24.5 14t-16.5 23z" />
<glyph unicode="&#x205f;" horiz-adv-x="503" />
<glyph unicode="&#x20ac;" horiz-adv-x="802" d="M80 600q1 11 0.5 58t1.5 61q1 6 36 9t70 2t35 -5q9 20 2 119q-13 3 -48.5 2.5t-57.5 -1t-29 2.5q-2 7 -2 119q0 3 22.5 5.5t54 3t66.5 -2.5q1 35 -1.5 117.5t-0.5 109.5t2.5 90t1.5 82q3 67 10 97t31 79q12 26 68 77t82 58q105 31 182.5 -18.5t112.5 -146.5 q17 -52 29 -222q2 -32 -2 -50.5t-3 -37.5q-10 1 -45.5 -4t-58 -7t-35.5 5q5 51 6 106t-15.5 108.5t-49.5 74.5q-24 15 -44 18t-34 -7t-25 -24t-18.5 -38.5t-12.5 -44t-8 -47.5t-4 -42t-2 -34q-6 -214 2 -299q42 1 67 1t39 -1.5t18.5 -3.5t4.5 -6q-3 -13 -4.5 -33.5t-1 -36.5 t1 -33.5t0.5 -19.5q-3 -1 -47 3.5t-78 -1.5q-5 -11 -7.5 -56.5t-0.5 -60.5q3 0 35 2t58.5 2t33.5 -4q6 -32 4.5 -67.5t-4.5 -57.5q-1 -6 -24 -3.5t-52.5 6t-58.5 -2.5q-15 -144 12 -342q3 -24 8.5 -47.5t15.5 -52t27.5 -44t38.5 -10.5q9 1 27.5 26t26.5 42q38 74 45 188 q2 14 85 12.5t83 -16.5q0 -93 -45.5 -219t-110.5 -172q-47 -31 -126 -24t-120 43q-24 21 -58.5 57.5t-39.5 52.5q-8 28 -17.5 141t-11.5 125q-4 58 -3.5 138.5t3.5 101.5q-23 5 -54.5 4t-60 -3t-28.5 -1z" />
<glyph unicode="&#x2122;" horiz-adv-x="587" d="M51 1599q1 1 1 19.5t1 19.5q4 1 14 1t19 1q51 0 90 -2q43 0 43 -2q0 -33 -4 -37q-3 -2 -6.5 -2t-10 1t-10.5 1t-13 -1.5t-15 -0.5q-3 -48 0 -96q0 -1 -1 -54t1 -54v-133q-1 -12 -1 -32t-1 -30q0 -33 -6 -37q0 -1 -8.5 -1.5t-18.5 0t-14 3.5q-7 16 -2 51q1 16 0 43t0 43 v136v161q-8 2 -24 1t-23.5 -1.5t-10.5 2.5zM266 1632q0 2 2 2q7 5 34 2.5t28 -8.5q7 -22 12.5 -49t11 -61t8.5 -50q15 -65 31 -204l58 370q12 2 38 1t29 -5q4 -9 4 -40.5v-37.5v-157q0 -137 -4 -203q0 -3 1.5 -14.5t0.5 -16.5q-2 -5 -23 -5t-22 5q-4 8 -4 33q8 145 0 293 q-3 -28 -27.5 -158t-33.5 -168q0 -4 -8 -3q-4 1 -7 1t-7.5 -0.5t-7.5 -0.5t-5.5 1t-3.5 4q-13 62 -25 129q-11 115 -31 195q-1 -29 0 -93t0 -91q1 -9 1 -76t-1 -68q-5 -3 -23 -3t-22 5q-2 12 -2 31q1 24 1 79.5t1 80.5q1 14 -1 89t-1 87q2 14 0.5 47t-0.5 45q0 2 -1 6t-1 6z " />
<glyph unicode="&#x25fc;" horiz-adv-x="1628" d="M0 0v1628h1628v-1628h-1628z" />
</font>
</defs>
</svg>
